<?xml version="1.0" standalone="no"?>
<!DOCTYPE svg PUBLIC "-//W3C//DTD SVG 1.1//EN" "http://www.w3.org/Graphics/SVG/1.1/DTD/svg11.dtd" >
<svg xmlns="http://www.w3.org/2000/svg">
<metadata>Generated by IcoMoon</metadata>
<defs>
<font id="WiseIconSet" horiz-adv-x="1024">
<font-face units-per-em="1024" ascent="960" descent="-64" />
<missing-glyph horiz-adv-x="1024" />
<glyph unicode="&#x20;" horiz-adv-x="512" d="" />
<glyph unicode="&#xe900;" glyph-name="zoom-out" d="M598.012 574.875h-340.595v-85.147h340.595v85.147zM1023.74-3.541l-266.598 266.603c149.073 182.319 122.121 450.968-60.203 600.041-182.319 149.072-450.968 122.12-600.041-60.2s-122.12-450.97 60.2-600.043c157.042-128.401 382.801-128.401 539.84 0l266.603-266.598 60.198 60.198zM427.699 191.706c-188.105 0-340.593 152.491-340.593 340.595 0 188.103 152.488 340.593 340.593 340.593 188.109 0 340.595-152.49 340.595-340.593-0.209-188.019-152.576-340.386-340.595-340.595z" />
<glyph unicode="&#xe901;" glyph-name="zoom-in" d="M1023.962-3.793l-266.658 266.658c149.107 182.362 122.146 451.067-60.211 600.173-182.362 149.106-451.066 122.148-600.172-60.214s-122.148-451.067 60.212-600.17c157.076-128.435 382.883-128.435 539.956 0l266.662-266.658 60.211 60.211zM427.793 191.497c-188.145 0-340.667 152.521-340.667 340.668 0 188.146 152.522 340.668 340.667 340.668 188.147 0 340.668-152.522 340.668-340.668-0.213-188.058-152.61-340.454-340.668-340.668zM470.417 702.458h-85.167v-127.75h-127.75v-85.168h127.75v-127.748h85.167v127.748h127.753v85.168h-127.753v127.75z" />
<glyph unicode="&#xe902;" glyph-name="world" d="M512 960c-101.264 0-200.254-30.028-284.452-86.287s-149.822-136.223-188.574-229.779c-38.752-93.556-48.891-196.501-29.136-295.821s68.519-190.549 140.123-262.153c71.604-71.603 162.834-120.367 262.153-140.122s202.265-9.617 295.82 29.133c93.555 38.754 173.521 104.38 229.777 188.578 56.26 84.194 86.289 183.185 86.289 284.45-0.145 135.746-54.135 265.89-150.123 361.876s-226.133 149.977-361.877 150.124v0zM938.667 448c0.026-83.166-24.393-164.506-70.229-233.899-36.787 40.951-57.335 93.943-57.771 148.992v84.907h-256c-11.315 0-22.17 4.497-30.17 12.497s-12.497 18.854-12.497 30.17v42.667h128v170.667h124.331l47.317 47.317c40.243-39.598 72.201-86.811 94.007-138.887s33.028-107.974 33.011-164.43v0zM87.424 406.912l172.245-172.245h166.997c11.315 0 22.17-4.497 30.17-12.497s12.497-18.854 12.497-30.17v-168.491c-98.125 10.018-189.764 53.666-259.374 123.55-69.609 69.879-112.902 161.69-122.535 259.853v0zM554.667 23.509v168.491c0 33.946-13.487 66.505-37.491 90.509s-56.559 37.491-90.509 37.491h-131.669l-202.709 202.709c12.21 69.41 41.46 134.703 85.127 190.021s100.383 98.93 165.061 126.924c64.678 27.993 135.292 39.492 205.513 33.465 70.217-6.028 137.839-29.393 196.8-67.999l-15.787-15.787h-174.336v-170.667h-128v-128c0-33.95 13.487-66.505 37.491-90.509s56.563-37.491 90.509-37.491h170.667c-0.098-80.832 31.663-158.451 88.405-216.021-69.495-69.803-161.062-113.327-259.072-123.136v0z" />
<glyph unicode="&#xe903;" glyph-name="volume" d="M85.333 704.427c-22.632 0-44.337-8.99-60.34-24.994s-24.994-37.708-24.994-60.34v-341.931c0-22.63 8.99-44.335 24.994-60.339s37.708-24.994 60.34-24.994h119.467l307.2-255.829v1024l-307.2-255.573h-119.467zM426.667 777.899v-659.669l-190.933 158.805h-150.4v341.931h150.4l190.933 158.933zM853.333 447.97c-0.013 56.61-22.481 110.9-62.477 150.959s-94.251 62.615-150.857 62.717h-42.667v-85.333h42.667c34.005 0 66.615-13.508 90.662-37.553 24.043-24.046 37.551-56.656 37.551-90.662 0-34.001-13.508-66.615-37.551-90.658-24.047-24.047-56.657-37.555-90.662-37.555h-42.667v-85.333h42.667c56.559 0.115 110.771 22.639 150.754 62.639 39.987 40.004 62.49 94.221 62.579 150.78v0zM640 832.66h-42.667v-85.333h42.667c79.347 0 155.443-31.52 211.55-87.627s87.629-132.204 87.629-211.551c0-79.347-31.522-155.443-87.629-211.55-56.107-56.111-132.203-87.629-211.55-87.629h-42.667v-85.333h42.667c102.012 0 199.846 40.525 271.983 112.657 72.132 72.137 112.657 169.971 112.657 271.983s-40.525 199.847-112.657 271.981c-72.137 72.134-169.971 112.658-271.983 112.658v-0.256z" />
<glyph unicode="&#xe904;" glyph-name="user" d="M896-64.021h-85.333v215.168c-0.034 33.451-13.338 65.523-36.992 89.173-23.65 23.654-55.723 36.958-89.173 36.992h-345.003c-33.451-0.034-65.521-13.338-89.175-36.992-23.653-23.65-36.957-55.723-36.99-89.173v-215.168h-85.333v215.168c0.068 56.073 22.372 109.828 62.022 149.478s93.405 61.952 149.477 62.020h345.003c56.073-0.068 109.828-22.37 149.478-62.020 39.646-39.65 61.952-93.406 62.020-149.478v-215.168zM512 448c-50.633 0-100.127 15.014-142.226 43.145s-74.911 68.111-94.287 114.889c-19.376 46.778-24.446 98.251-14.568 147.91s34.26 95.274 70.062 131.076c35.802 35.802 81.417 60.184 131.078 70.062 49.655 9.878 101.129 4.808 147.908-14.568s86.758-52.188 114.889-94.287c28.13-42.099 43.145-91.594 43.145-142.226-0.068-67.875-27.059-132.95-75.055-180.945s-113.071-74.987-180.945-75.055v0zM512 874.667c-33.754 0-66.752-10.010-94.817-28.762s-49.94-45.408-62.858-76.593c-12.917-31.185-16.297-65.501-9.712-98.607s22.84-63.516 46.708-87.384c23.868-23.868 54.277-40.122 87.382-46.708 33.109-6.586 67.422-3.206 98.607 9.712s57.843 34.792 76.595 62.858c18.752 28.066 28.762 61.062 28.762 94.817 0 45.263-17.98 88.673-49.988 120.679-32.004 32.006-75.413 49.987-120.678 49.987z" />
<glyph unicode="&#xe905;" glyph-name="mentor" d="M303.856 520.925c37.047-24.752 80.603-37.966 125.159-37.966 59.728 0.066 116.99 23.822 159.224 66.056s65.991 99.496 66.056 159.224c0 44.556-13.214 88.112-37.966 125.159-24.756 37.047-59.937 65.922-101.102 82.973s-86.462 21.512-130.163 12.82c-43.7-8.692-83.841-30.148-115.347-61.654s-52.962-71.647-61.654-115.347c-8.693-43.7-4.231-88.996 12.82-130.161s45.926-76.347 82.973-101.104zM349.368 827.44c23.576 15.752 51.293 24.16 79.647 24.16 38.023 0 74.486-15.104 101.372-41.989s41.988-63.35 41.988-101.371c0-28.354-8.409-56.071-24.162-79.646-15.749-23.576-38.142-41.95-64.336-52.801s-55.022-13.689-82.83-8.158c-27.809 5.532-53.353 19.185-73.402 39.235s-33.703 45.593-39.235 73.403c-5.532 27.809-2.693 56.634 8.158 82.829s29.225 48.586 52.801 64.338zM286.72 401.039c-54.296-0.066-106.35-21.664-144.744-60.056s-59.991-90.448-60.056-144.744v-245.76h81.92v245.76c0 32.592 12.946 63.844 35.991 86.888s54.299 35.992 86.889 35.992h132.342c6.451 28.385 16.298 55.89 29.327 81.92h-161.669zM737.509-61.796h-257.679v273.875l0.025 0.389c3.162 50.242 20.951 98.46 51.175 138.715 30.224 40.26 71.565 70.799 118.931 87.855 47.362 17.056 98.681 19.886 147.632 8.143 48.951-11.747 93.401-37.552 127.869-74.244 34.468-36.688 57.455-82.657 66.122-132.248 8.671-49.59 2.646-100.631-17.33-146.838-19.98-46.207-53.035-85.565-95.101-113.222-42.062-27.652-91.304-42.402-141.644-42.426zM787.108 394.957c-16.097 4.022-32.756 6.103-49.631 6.103-51.966-0.070-101.974-19.853-139.919-55.362s-61.002-84.095-64.512-135.942v-218.296h0.033v218.288c3.51 51.851 26.567 100.434 64.512 135.942s87.949 55.292 139.919 55.362c16.863 0 33.509-2.081 49.598-6.095zM605.987 336.716c-35.574-33.288-57.225-78.799-60.621-127.39v-205.586h192.143c51.057 0 100.024 20.283 136.126 56.386s56.386 85.070 56.386 136.126c0 51.057-20.283 100.024-56.386 136.126s-85.066 56.386-136.118 56.386c-48.853-0.066-95.859-18.665-131.531-52.048zM872.403-9.101c40.063 26.341 71.545 63.82 90.571 107.827s24.764 92.619 16.507 139.846c-8.258 47.231-30.147 91.009-62.972 125.952-32.256 34.333-73.683 58.659-119.341 70.107 45.642-11.452 87.060-35.774 119.308-70.099 32.825-34.943 54.714-78.721 62.972-125.952 8.258-47.227 2.519-95.838-16.507-139.846s-50.508-81.486-90.571-107.827c-40.059-26.337-86.95-40.382-134.894-40.407l0.033-0.008c47.944 0.025 94.835 14.070 134.894 40.407zM669.909 286.36h77.263c17.072 0 30.908-13.836 30.908-30.904 0-17.072-13.836-30.908-30.908-30.908h-77.263c-17.072 0-30.908 13.836-30.908 30.908 0 17.068 13.836 30.904 30.908 30.904zM766.46 274.756v-19.296c0-10.666-8.647-19.313-19.313-19.313l0.025-0.008c10.67 0 19.317 8.647 19.317 19.317v19.3c0 0.008-0.004 0.016-0.012 0.016s-0.016-0.008-0.016-0.016zM669.913 170.459c-17.072 0-30.908-13.836-30.908-30.904 0-17.072 13.836-30.908 30.908-30.908h142.942c17.068 0 30.904 13.836 30.904 30.908 0 17.068-13.836 30.904-30.904 30.904h-142.942zM832.745 158.847c0 0.012 0.008 0.025 0.020 0.025l0.008-0.004c0.012-0.004 0.016-0.012 0.016-0.020v-19.292c0-10.67-8.647-19.317-19.317-19.317l-163.496 0.008h163.451c10.67 0 19.317 8.647 19.317 19.313v19.288z" />
<glyph unicode="&#xe906;" glyph-name="mentee" d="M437.084 482.959c-44.556 0-88.112 13.214-125.159 37.966-37.047 24.756-65.922 59.939-82.973 101.104s-21.512 86.461-12.82 130.161c8.693 43.7 30.148 83.841 61.654 115.347s71.647 52.962 115.347 61.654c43.7 8.692 88.997 4.231 130.162-12.82s76.345-45.926 101.102-82.973c24.752-37.047 37.966-80.603 37.966-125.159-0.066-59.728-23.822-116.991-66.056-159.224s-99.496-65.991-159.224-66.056zM437.084 851.6c-28.354 0-56.071-8.408-79.646-24.16s-41.95-38.142-52.801-64.338c-10.851-26.196-13.69-55.021-8.158-82.83s19.185-53.354 39.234-73.403c20.050-20.049 45.594-33.703 73.403-39.235s56.636-2.692 82.83 8.158c26.194 10.851 48.587 29.226 64.34 52.801 15.749 23.575 24.158 51.293 24.158 79.646 0 38.022-15.102 74.486-41.988 101.371s-63.349 41.989-101.372 41.989zM456.458 401.039c-13.029-26.030-22.876-53.535-29.327-81.92h-132.342c-32.59 0-63.845-12.947-86.889-35.992s-35.991-54.297-35.991-86.888v-245.76h-81.92v245.76c0.065 54.297 21.663 106.353 60.056 144.744s90.447 59.99 144.744 60.056h161.669zM723.878 150.778c-0.889 1.761-1.389 3.752-1.389 5.861-0.258 12.386 2.802 24.617 8.864 35.422s14.905 19.788 25.612 26.022c6.488 3.572 11.678 9.101 14.832 15.802 3.15 6.701 4.104 14.225 2.724 21.5-0.34 1.72-0.803 3.404-1.389 5.038 0.582-1.634 1.044-3.314 1.384-5.030 1.38-7.274 0.426-14.799-2.724-21.5-3.154-6.701-8.344-12.231-14.832-15.802-10.707-6.234-19.55-15.221-25.612-26.022-6.062-10.805-9.122-23.036-8.864-35.422 0-2.109 0.5-4.104 1.393-5.87zM672.936 257.303c-1.323 2.65-1.753 5.747-0.918 9.015 1.597 6.234 4.051 12.251 7.311 17.863 6.226 10.711 15.167 19.583 25.928 25.719 10.756 6.132 22.946 9.314 35.332 9.22 12.382-0.098 24.523-3.469 35.185-9.769 10.662-6.304 19.464-15.311 25.522-26.116 0.541-0.967 1.061-1.95 1.556-2.941-0.496 0.995-1.016 1.978-1.561 2.949-6.058 10.805-14.86 19.812-25.522 26.116-10.662 6.3-22.802 9.671-35.185 9.769-12.386 0.094-24.576-3.088-35.332-9.224-10.76-6.132-19.702-15.004-25.928-25.715-3.26-5.612-5.714-11.629-7.311-17.867-0.836-3.269-0.406-6.369 0.922-9.019zM724.255 83.034c-1.2 2.372-1.876 5.059-1.876 7.897 0 9.699 7.86 17.555 17.555 17.555 6.857 0 12.796-3.928 15.684-9.658-2.888 5.726-8.827 9.65-15.679 9.65-9.695 0-17.555-7.856-17.555-17.551 0-2.843 0.676-5.521 1.872-7.893zM765.788 156.647c0-11.727-9.511-21.234-21.238-21.234h-9.023c-11.694 0-21.18 9.454-21.234 21.139-0.274 13.82 3.146 27.468 9.912 39.522 6.779 12.083 16.667 22.127 28.635 29.094l0.168 0.098v-0.004c4.973 2.74 8.954 6.984 11.37 12.12 2.413 5.124 3.146 10.883 2.093 16.454-1.053 5.321-3.67 10.207-7.512 14.037s-8.733 6.431-14.057 7.471c-3.867 0.709-7.848 0.565-11.653-0.426-3.817-0.995-7.369-2.818-10.408-5.341-3.035-2.519-5.476-5.677-7.16-9.249-4.035-8.577-12.739-19.587-26.128-19.587h-2.159c-13.472 0-27.419 11.596-23.319 27.615 1.786 6.963 4.526 13.681 8.167 19.948 6.951 11.956 16.937 21.864 28.951 28.717 12.014 6.849 25.625 10.404 39.453 10.297 13.828-0.111 27.386-3.871 39.289-10.908 11.907-7.037 21.737-17.097 28.5-29.164 6.762-12.063 10.215-25.698 10.007-39.526s-4.076-27.357-11.198-39.211c-7.082-11.78-17.138-21.492-29.155-28.164-3.883-2.47-7.062-5.906-9.22-9.974-2.191-4.125-3.256-8.757-3.088-13.431l0.012-0.295h-0.004zM714.187 90.931c0 14.221 11.53 25.747 25.747 25.747 14.221 0 25.747-11.526 25.747-25.747 0-14.217-11.526-25.743-25.747-25.743-14.217 0-25.747 11.526-25.747 25.743zM500.199-49.521h245.342c47.944 0.025 94.835 14.070 134.894 40.407 40.063 26.341 71.545 63.82 90.571 107.827s24.764 92.619 16.507 139.85c-8.258 47.227-30.147 91.009-62.976 125.948-32.825 34.943-75.158 59.523-121.778 70.705-5.464 1.311-10.957 2.433-16.474 3.363 5.534-0.93 11.043-2.056 16.523-3.367 46.621-11.186 88.953-35.766 121.778-70.709 32.829-34.939 54.718-78.721 62.976-125.948 8.253-47.231 2.515-95.842-16.511-139.85-19.022-44.007-50.508-81.486-90.567-107.827-40.063-26.337-86.95-40.382-134.894-40.407l-245.391 0.008zM779.244 398.25c-11.067 1.843-22.335 2.789-33.702 2.789-51.97-0.066-101.974-19.853-139.919-55.362s-61.002-84.091-64.512-135.942v-218.296h0.049v218.288c3.51 51.851 26.567 100.434 64.512 135.942s87.949 55.296 139.919 55.362c11.35 0 22.602-0.942 33.653-2.781zM487.911 212.062v-273.879h257.683c50.34 0.025 99.574 14.774 141.64 42.43 42.066 27.652 75.121 67.011 95.097 113.218s26.001 97.247 17.334 146.838c-8.671 49.59-31.654 95.56-66.122 132.252-34.472 36.688-78.918 62.493-127.869 74.24-48.951 11.743-100.27 8.913-147.636-8.143-47.362-17.056-88.703-47.596-118.927-87.851-30.224-40.26-48.013-88.478-51.18-138.719l-0.020-0.385zM745.599 388.743c51.053 0 100.016-20.283 136.118-56.386s56.386-85.070 56.386-136.126c0-51.057-20.283-100.024-56.386-136.126-36.106-36.102-85.070-56.386-136.126-56.386h-192.143v205.586c3.391 48.591 25.047 94.106 60.621 127.394 35.668 33.378 82.678 51.978 131.531 52.044z" />
<glyph unicode="&#xe907;" glyph-name="user-time" d="M361.557 490.667c-46.413 0-91.783 13.764-130.374 39.548-38.591 25.786-68.669 62.436-86.43 105.316s-22.409 90.063-13.354 135.584c9.055 45.521 31.404 87.335 64.223 120.153s74.633 55.169 120.153 64.223c45.521 9.055 92.705 4.407 135.586-13.354 42.88-17.761 79.526-47.839 105.314-86.43 25.783-38.591 39.548-83.961 39.548-130.374-0.068-62.217-24.815-121.866-68.809-165.86-43.994-43.992-103.642-68.739-165.858-68.807v0zM361.557 874.667c-29.535 0-58.407-8.758-82.965-25.167s-43.698-39.732-55.001-67.019c-11.302-27.287-14.26-57.313-8.498-86.281s19.985-55.576 40.87-76.461c20.884-20.884 47.493-35.107 76.461-40.869s58.994-2.805 86.281 8.498c27.286 11.302 50.612 30.443 67.017 55.001 16.41 24.558 25.169 53.43 25.169 82.965 0 39.605-15.731 77.589-43.738 105.594s-65.99 43.739-105.596 43.739v0zM725.333-64c-59.072 0-116.813 17.515-165.931 50.334-49.114 32.819-87.394 79.462-110.003 134.037-22.605 54.575-28.518 114.628-16.994 172.561 11.524 57.937 39.97 111.155 81.741 152.922 41.766 41.771 94.985 70.217 152.922 81.741 57.933 11.524 117.986 5.611 172.561-16.994 54.575-22.609 101.218-60.89 134.037-110.003 32.819-49.118 50.334-106.859 50.334-165.931-0.090-79.185-31.586-155.098-87.578-211.089s-131.904-87.488-211.089-87.578v0zM725.333 448c-42.193 0-83.439-12.51-118.524-35.955-35.081-23.441-62.426-56.759-78.571-95.74s-20.373-81.877-12.139-123.26c8.23-41.382 28.548-79.394 58.385-109.227 29.833-29.837 67.844-50.155 109.227-58.385 41.387-8.235 84.279-4.006 123.26 12.139s72.299 43.49 95.74 78.571c23.445 35.085 35.955 76.331 35.955 118.524-0.068 56.559-22.566 110.78-62.558 150.775-39.996 39.991-94.217 62.49-150.775 62.558zM840.832 179.499l-72.832 72.832v110.336h-85.333v-145.664l97.835-97.835 60.331 60.331zM381.739 405.333h-168.405c-56.559-0.068-110.781-22.566-150.775-62.558-39.993-39.996-62.491-94.217-62.559-150.775v-256h85.333v256c0 33.946 13.486 66.505 37.49 90.509s56.562 37.491 90.51 37.491h137.856c6.721 29.568 16.977 58.219 30.549 85.333v0z" />
<glyph unicode="&#xe908;" glyph-name="user-check" d="M384 448c50.633 0 100.126 15.014 142.225 43.145s74.914 68.111 94.289 114.889c19.375 46.778 24.444 98.251 14.566 147.91s-34.257 95.274-70.063 131.076c-35.802 35.802-81.417 60.184-131.076 70.062-49.657 9.878-101.13 4.808-147.908-14.568s-86.76-52.188-114.889-94.287c-28.13-42.099-43.144-91.594-43.144-142.226 0.068-67.875 27.061-132.95 75.055-180.945s113.070-74.987 180.945-75.055zM384 874.667c33.755 0 66.752-10.010 94.818-28.762s49.941-45.408 62.857-76.593c12.919-31.185 16.299-65.501 9.711-98.607-6.583-33.106-22.839-63.516-46.707-87.384s-54.276-40.122-87.383-46.708c-33.106-6.586-67.421-3.205-98.607 9.712s-57.84 34.792-76.593 62.858c-18.753 28.066-28.762 61.062-28.762 94.817 0 45.263 17.981 88.673 49.987 120.679s75.416 49.987 120.68 49.987zM768 149.333v-213.333h-85.333v213.333c0 33.946-13.487 66.505-37.491 90.509s-56.563 37.491-90.509 37.491h-341.333c-33.948 0-66.505-13.487-90.51-37.491s-37.49-56.563-37.49-90.509v-213.333h-85.333v213.333c0.068 56.559 22.566 110.78 62.559 150.775 39.993 39.991 94.216 62.49 150.775 62.558h341.333c56.559-0.068 110.78-22.566 150.775-62.558 39.991-39.996 62.49-94.217 62.558-150.775zM741.935 412.796c-3.375 0.439-6.537 1.98-8.969 4.416l-86.882 86.827 86.818-86.818c2.449-2.449 5.632-3.998 9.033-4.425zM972.198 634.484l21.922-21.923-217.301-217.301c-4.322-4.326-9.459-7.757-15.108-10.095-5.653-2.338-11.712-3.537-17.83-3.524-1.946-0.004-3.891 0.115-5.815 0.354 1.946-0.243 3.908-0.367 5.879-0.363 6.118-0.009 12.177 1.186 17.826 3.524 5.653 2.338 10.79 5.769 15.113 10.095l217.301 217.302-21.961 21.958-0.026-0.027zM597.333 482.086l100.254-100.237c6.089-6.093 13.325-10.931 21.282-14.221 7.953-3.285 16.474-4.975 25.075-4.962 8.602-0.013 17.122 1.677 25.075 4.962 7.957 3.29 15.194 8.128 21.282 14.221l230.703 230.703-48.781 48.78-228.279-228.279-97.839 97.839-48.772-48.806z" />
<glyph unicode="&#xe909;" glyph-name="user-remove" d="M384 448c50.633 0 100.126 15.014 142.225 43.145s74.914 68.111 94.289 114.889c19.375 46.778 24.444 98.251 14.566 147.91s-34.257 95.274-70.063 131.076c-35.802 35.802-81.417 60.184-131.076 70.062-49.657 9.878-101.13 4.808-147.908-14.568s-86.76-52.188-114.889-94.287c-28.13-42.099-43.144-91.594-43.144-142.226 0.068-67.875 27.061-132.95 75.055-180.945s113.070-74.987 180.945-75.055zM384 874.667c33.755 0 66.752-10.010 94.818-28.762s49.941-45.408 62.857-76.593c12.919-31.185 16.299-65.501 9.711-98.607-6.583-33.106-22.839-63.516-46.707-87.384s-54.276-40.122-87.383-46.708c-33.106-6.586-67.421-3.205-98.607 9.712s-57.84 34.792-76.593 62.858c-18.753 28.066-28.762 61.062-28.762 94.817 0 45.263 17.981 88.673 49.987 120.679s75.416 49.987 120.68 49.987v0zM768 149.333v-213.333h-85.333v213.333c0 33.946-13.487 66.505-37.491 90.509s-56.563 37.491-90.509 37.491h-341.333c-33.948 0-66.505-13.487-90.51-37.491s-37.49-56.563-37.49-90.509v-213.333h-85.333v213.333c0.068 56.559 22.566 110.78 62.559 150.775 39.993 39.991 94.216 62.49 150.775 62.558h341.333c56.559-0.068 110.78-22.566 150.775-62.558 39.991-39.996 62.49-94.217 62.558-150.775zM913.664 533.333l108.501-108.501-60.331-60.331-108.501 108.501-108.501-108.501-60.331 60.331 108.501 108.501-108.501 108.501 60.331 60.331 108.501-108.501 108.501 108.501 60.331-60.331-108.501-108.501z" />
<glyph unicode="&#xe90a;" glyph-name="user-delete" d="M1024 448h-341.333v85.333h341.333v-85.333zM638.891 704c0 50.632-15.014 100.127-43.145 142.226s-68.109 74.911-114.889 94.287c-46.78 19.376-98.251 24.446-147.91 14.568s-95.274-34.259-131.076-70.062c-35.802-35.802-60.184-81.417-70.062-131.076s-4.808-101.132 14.568-147.91c19.376-46.778 52.188-86.758 94.287-114.889s91.594-43.145 142.226-43.145c67.874 0.068 132.949 27.059 180.945 75.055s74.987 113.070 75.055 180.945v0zM553.557 704c0-33.755-10.010-66.752-28.762-94.817s-45.41-49.941-76.595-62.858c-31.184-12.917-65.499-16.298-98.605-9.712s-63.516 22.84-87.384 46.708c-23.868 23.868-40.122 54.278-46.708 87.384s-3.206 67.421 9.712 98.607c12.917 31.185 34.792 57.84 62.858 76.593s61.062 28.762 94.817 28.762c45.265 0 88.674-17.981 120.678-49.987 32.009-32.006 49.988-75.416 49.988-120.679zM768 149.333c-0.068 56.559-22.566 110.78-62.558 150.775-39.996 39.991-94.217 62.49-150.775 62.558h-341.333c-56.559-0.068-110.781-22.566-150.775-62.558-39.993-39.996-62.491-94.217-62.559-150.775v-213.333h85.333v213.333c0 33.946 13.486 66.505 37.49 90.509s56.562 37.491 90.51 37.491h341.333c33.946 0 66.505-13.487 90.509-37.491s37.491-56.563 37.491-90.509v-213.333h85.333v213.333z" />
<glyph unicode="&#xe90b;" glyph-name="user-add" d="M384 448c50.633 0 100.126 15.014 142.225 43.145s74.914 68.111 94.289 114.889c19.375 46.778 24.444 98.251 14.566 147.91s-34.257 95.274-70.063 131.076c-35.802 35.802-81.417 60.184-131.076 70.062-49.657 9.878-101.13 4.808-147.908-14.568s-86.76-52.188-114.889-94.287c-28.13-42.099-43.144-91.594-43.144-142.226 0.068-67.875 27.061-132.95 75.055-180.945s113.070-74.987 180.945-75.055zM384 874.667c33.755 0 66.752-10.010 94.818-28.762s49.941-45.408 62.857-76.593c12.919-31.185 16.299-65.501 9.711-98.607-6.583-33.106-22.839-63.516-46.707-87.384s-54.276-40.122-87.383-46.708c-33.106-6.586-67.421-3.206-98.607 9.712s-57.84 34.792-76.593 62.858c-18.753 28.066-28.762 61.062-28.762 94.817 0 45.263 17.981 88.673 49.987 120.679s75.416 49.987 120.68 49.987v0zM896 533.354v128h-85.333v-128h-128v-85.333h128v-128h85.333v128h128v85.333h-128zM556.501 362.645h-345.003c-56.072-0.068-109.828-22.37-149.477-62.020s-61.954-93.406-62.022-149.478v-215.168h85.333v215.168c0.034 33.451 13.337 65.523 36.99 89.173 23.654 23.654 55.724 36.958 89.175 36.992h345.003c33.451-0.034 65.523-13.338 89.173-36.992 23.654-23.65 36.958-55.723 36.992-89.173v-215.168h85.333v215.168c-0.068 56.073-22.374 109.828-62.020 149.478-39.65 39.65-93.406 61.952-149.478 62.020v0z" />
<glyph unicode="&#xe90c;" glyph-name="upload" d="M938.667 277.376v-213.333c0-11.315-4.497-22.17-12.497-30.17-8-8.004-18.854-12.497-30.17-12.497h-768c-11.316 0-22.168 4.493-30.17 12.497-8.001 8-12.497 18.854-12.497 30.17v213.333h-85.333v-213.333c0-33.95 13.486-66.505 37.49-90.509s56.562-37.491 90.51-37.491h768c33.946 0 66.505 13.487 90.509 37.491s37.491 56.559 37.491 90.509v213.333h-85.333zM510.583 960.020c-16.802 0.046-33.451-3.224-48.986-9.623-15.539-6.399-29.658-15.801-41.554-27.668l-167.211-167.211 60.331-60.331 155.052 155.008 1.109-700.842h85.333l-1.109 700.244 154.411-154.411 60.331 60.331-167.211 167.211c-11.887 11.865-26.001 21.267-41.532 27.666s-32.171 9.67-48.964 9.624v0z" />
<glyph unicode="&#xe90d;" glyph-name="unlock" d="M298.667 618.63v42.667c-0.013 47.3 15.694 93.263 44.652 130.663s69.523 64.116 115.319 75.948c45.798 11.831 94.229 8.107 137.677-10.587s79.454-51.298 102.353-92.685l74.624 41.429c-32.073 57.928-82.487 103.555-143.317 129.71s-128.623 31.354-192.73 14.781c-64.108-16.574-120.889-53.981-161.42-106.34s-62.513-116.704-62.491-182.918v-42.667h-128v-554.668c0-33.946 13.486-66.505 37.49-90.509s56.562-37.491 90.51-37.491h597.333c33.946 0 66.505 13.487 90.509 37.491s37.491 56.563 37.491 90.509v554.668h-640zM853.333 63.962c0-11.315-4.497-22.165-12.497-30.17-8-8-18.854-12.497-30.17-12.497h-597.333c-11.316 0-22.168 4.497-30.17 12.497-8.001 8.004-12.497 18.854-12.497 30.17v469.333h682.667v-469.333zM554.667 362.645h-85.333v-170.667h85.333v170.667z" />
<glyph unicode="&#xe90e;" glyph-name="undo" d="M1023.974-63.974h-85.333c-0.090 79.181-31.586 155.098-87.578 211.089s-131.904 87.484-211.089 87.578h-206.080v-273.664l-396.501 396.501c-23.996 24-37.477 56.555-37.477 90.496 0 33.937 13.48 66.492 37.477 90.494l396.501 396.501v-273.664h206.080c101.807-0.113 199.415-40.606 271.403-112.596 71.991-71.991 112.486-169.595 112.597-271.402v-341.333zM348.561 729.026l-250.837-250.835c-7.999-8.004-12.492-18.854-12.492-30.165 0-11.315 4.494-22.165 12.492-30.165l250.837-250.837v153.003h291.413c57.297 0 113.865-12.83 165.547-37.559 51.682-24.725 97.173-60.719 133.12-105.331v100.224c-0.090 79.181-31.586 155.098-87.578 211.089-55.991 55.99-131.904 87.485-211.089 87.575h-291.413v153.003z" />
<glyph unicode="&#xe90f;" glyph-name="undo-alt" d="M891.733 661.096h-772.567l183.765 183.68-60.501 60.245-211.2-211.157c-19.997-20.003-31.231-47.129-31.231-75.413s11.234-55.411 31.231-75.413l211.2-211.244 60.501 60.331-183.467 183.468h772.268c11.58 0.777 23.002-3.042 31.787-10.63 8.789-7.587 14.229-18.332 15.147-29.904v-473.601c-0.93-11.563-6.374-22.298-15.159-29.875s-20.198-11.392-31.774-10.615h-806.401v-85.333h806.401c34.227-0.789 67.375 12.023 92.169 35.635s39.215 56.090 40.098 90.317v473.644c-0.909 34.211-15.334 66.669-40.128 90.262s-57.924 36.396-92.139 35.605v0z" />
<glyph unicode="&#xe910;" glyph-name="trophy" d="M642.859 277.333c281.131 1.152 381.141 149.845 381.141 277.333-0.030 34.1-11.725 67.164-33.148 93.694s-51.281 44.931-84.612 52.14c12.326 34.688 22.306 70.168 29.867 106.197 3.789 18.445 3.405 37.504-1.118 55.782-4.527 18.278-13.082 35.314-25.037 49.861-12.109 14.91-27.392 26.927-44.74 35.173s-36.318 12.511-55.526 12.486h-595.371c-19.215 0.032-38.193-4.231-55.549-12.476s-32.649-20.266-44.761-35.182c-11.957-14.547-20.511-31.582-25.036-49.861s-4.907-37.337-1.118-55.782c7.54-36.035 17.519-71.515 29.867-106.197-33.321-7.218-63.17-25.622-84.585-52.151s-33.107-59.589-33.133-93.683c0-127.488 100.011-276.181 381.141-277.333 1.596-8.981 2.551-18.065 2.859-27.179v-143.488c0.733-11.396-0.972-22.818-5.001-33.502-4.029-10.688-10.29-20.39-18.365-28.467-8.075-8.073-17.779-14.336-28.464-18.364s-22.107-5.734-33.504-5.001h-85.333v-85.333h597.333v85.333h-84.992c-11.422-0.768-22.874 0.905-33.596 4.919-10.718 4.011-20.459 10.266-28.57 18.342s-14.404 17.792-18.458 28.497c-4.053 10.705-5.777 22.153-5.052 33.574v143.488c0.307 9.114 1.263 18.197 2.859 27.179zM874.667 618.667c16.973 0 33.254-6.743 45.257-18.745s18.743-28.281 18.743-45.255c0-87.381-69.589-180.267-261.291-190.933 7.543 9.911 16.256 18.88 25.941 26.709 72.738 62.417 130.475 140.425 168.917 228.224h2.432zM85.333 554.667c0 16.974 6.743 33.252 18.745 45.255s28.281 18.745 45.255 18.745h2.432c38.412-87.808 96.137-165.815 168.875-228.224 9.7-7.829 18.423-16.798 25.984-26.709-191.701 10.667-261.291 103.552-261.291 190.933zM554.667 250.155v-143.488c-0.482-29.751 6.673-59.132 20.779-85.333h-126.891c14.106 26.202 21.261 55.582 20.779 85.333v143.488c0.725 39.458-7.479 78.571-24 114.411-16.521 35.844-40.931 67.486-71.403 92.565-105.131 84.053-177.664 244.736-202.496 366.763-1.275 6.024-1.17 12.259 0.308 18.237s4.29 11.543 8.226 16.28c4.142 5.109 9.379 9.222 15.324 12.036s12.446 4.256 19.023 4.22h595.371c6.541 0.004 13.001-1.453 18.906-4.266s11.11-6.909 15.228-11.99c3.925-4.743 6.729-10.309 8.209-16.285 1.476-5.976 1.587-12.208 0.324-18.233-25.003-122.027-97.365-282.709-202.539-366.933-30.396-25.092-54.741-56.717-71.215-92.527-16.474-35.806-24.653-74.871-23.932-114.278v0z" />
<glyph unicode="&#xe911;" glyph-name="trash" d="M938.667 789.333h-213.333v85.333c0 22.632-8.99 44.337-24.994 60.34s-37.709 24.994-60.339 24.994h-256c-22.632 0-44.337-8.99-60.34-24.994s-24.994-37.708-24.994-60.34v-85.333h-213.333v-85.333h85.333v-640c0-33.946 13.486-66.505 37.49-90.509s56.562-37.491 90.51-37.491h426.667c33.946 0 66.505 13.487 90.509 37.491s37.491 56.563 37.491 90.509v640h85.333v85.333zM384 874.667h256v-85.333h-256v85.333zM768 64c0-11.315-4.497-22.17-12.497-30.17s-18.854-12.497-30.17-12.497h-426.667c-11.316 0-22.168 4.497-30.17 12.497s-12.497 18.854-12.497 30.17v640h512v-640zM469.333 533.354h-85.333v-341.333h85.333v341.333zM640 533.354h-85.333v-341.333h85.333v341.333z" />
<glyph unicode="&#xe912;" glyph-name="tool-crop" d="M1024 192h-170.667v469.333c0 33.948-13.487 66.505-37.491 90.51s-56.563 37.49-90.509 37.49h-469.333v170.667h-85.333v-170.667h-170.667v-85.333h170.667v-469.333c0-33.946 13.486-66.505 37.49-90.509s56.562-37.491 90.51-37.491h469.333v-170.667h85.333v170.667h170.667v85.333zM298.667 192c-11.316 0-22.168 4.497-30.17 12.497s-12.497 18.854-12.497 30.17v469.333h469.333c11.315 0 22.17-4.495 30.17-12.497s12.497-18.854 12.497-30.17v-469.333h-469.333z" />
<glyph unicode="&#xe913;" glyph-name="time-twenty-four" d="M725.333 192c0 33.946-13.487 66.505-37.491 90.509s-56.563 37.491-90.509 37.491c-33.946 0-66.505-13.487-90.509-37.491s-37.491-56.563-37.491-90.509h85.333c0 11.315 4.497 22.17 12.497 30.17s18.854 12.497 30.17 12.497c11.315 0 22.17-4.497 30.17-12.497s12.497-18.854 12.497-30.17c0-21.333-36.267-48.555-68.267-72.533-48-36.011-102.4-76.8-102.4-140.8v-42.667h256v85.333h-140.373c11.563 10.069 25.131 20.224 37.973 29.867 48 36.011 102.4 76.8 102.4 140.8zM938.667 149.333h-85.333v170.667h-85.333v-170.667c0-22.63 8.99-44.335 24.994-60.339s37.709-24.994 60.339-24.994h85.333v-128h85.333v384h-85.333v-170.667zM554.667 704h-85.333v-213.333h-170.667v-85.333h256v298.667zM938.692 874.673v-143.957c-45.811 69.282-107.793 126.373-180.599 166.346s-154.249 61.625-237.291 63.088c-83.046 1.463-165.198-17.307-239.366-54.691s-138.124-92.256-186.346-159.881c-48.221-67.625-79.26-145.971-90.435-228.274-11.176-82.3-2.152-166.084 26.29-244.122s75.451-147.977 136.965-203.785c61.515-55.808 135.688-95.804 216.115-116.54v88.149c-66.334 20.634-126.626 57.152-175.639 106.381-49.013 49.233-85.264 109.683-105.604 176.111-20.34 66.423-24.153 136.806-11.109 205.039 13.045 68.235 42.553 132.25 85.96 186.487s99.402 97.055 163.118 124.733c63.716 27.679 133.228 39.381 202.493 34.091s136.196-27.415 194.97-64.449c58.773-37.035 107.614-87.86 142.281-148.060h-155.136v-85.333h213.333c22.63 0 44.335 8.99 60.339 24.993s24.994 37.708 24.994 60.34v213.333h-85.333z" />
<glyph unicode="&#xe914;" glyph-name="time-quarter-to" d="M1024 448c0-135.791-53.943-266.018-149.961-362.039-96.021-96.017-226.249-149.961-362.039-149.961s-266.020 53.943-362.039 149.961c-96.019 96.021-149.961 226.249-149.961 362.039 0 15.659 0.725 31.189 2.091 46.507l84.992-7.723c-1.166-12.77-1.749-25.698-1.749-38.784 0-84.386 25.024-166.878 71.906-237.043s113.519-124.851 191.482-157.146c77.962-32.294 163.752-40.742 246.516-24.282 82.765 16.465 158.788 57.101 218.462 116.77 59.669 59.674 100.305 135.697 116.77 218.462 16.461 82.765 8.013 168.555-24.282 246.516-32.294 77.964-86.98 144.599-157.146 191.482s-152.657 71.906-237.043 71.906c-13.086 0-26.014-0.583-38.784-1.749l-7.723 84.992c15.317 1.365 30.848 2.091 46.507 2.091 135.744-0.147 265.89-54.137 361.877-150.124s149.978-226.131 150.123-361.876zM241.621 778.112l-54.101 65.963c-26.188-21.53-50.197-45.581-71.68-71.808l66.005-53.973c17.925 21.843 37.946 41.878 59.776 59.819zM390.059 856.96l-24.363 81.707c-32.484-9.658-63.927-22.521-93.867-38.4l40.064-75.349c24.925 13.253 51.11 23.987 78.165 32.043v0zM134.997 647.893l-75.264 40.107c-15.872-29.943-28.735-61.385-38.4-93.867l81.792-24.363c8.002 27.063 18.679 53.261 31.872 78.208v-0.085zM469.333 704v-182.485c-12.783-7.437-23.411-18.065-30.848-30.848h-139.819v-85.333h139.819c6.515-11.315 15.548-20.979 26.402-28.245 10.85-7.266 23.228-11.934 36.173-13.645s26.112-0.422 38.477 3.772c12.369 4.194 23.603 11.179 32.836 20.412s16.218 20.467 20.412 32.836c4.194 12.365 5.483 25.532 3.772 38.477s-6.379 25.323-13.645 36.173c-7.266 10.854-16.93 19.887-28.245 26.402v182.485h-85.333z" />
<glyph unicode="&#xe915;" glyph-name="time-quarter-past" d="M108.453 309.12l-80.725-27.52c-10.037 29.137-17.406 59.127-22.016 89.6l84.352 12.8c3.861-25.463 10.016-50.526 18.389-74.88v0zM140.026 238.805l-74.325-41.941c15.218-26.901 32.81-52.39 52.565-76.16l65.621 54.528c-16.506 19.874-31.185 41.19-43.861 63.701v-0.128zM374.309 941.269c-29.821-8.323-58.825-19.333-86.656-32.896l37.419-76.8c23.165 11.331 47.315 20.528 72.149 27.477l-22.912 82.219zM183.717 55.083c23.704-19.831 49.152-37.483 76.032-52.736l42.112 74.24c-22.423 12.719-43.657 27.426-63.445 43.947l-54.699-65.451zM94.799 537.6l-83.456 18.048c-6.449-30.238-10.161-61.001-11.093-91.904l85.333-2.56c0.77 25.698 3.854 51.273 9.216 76.416v0zM259.066 791.467l-50.603 68.907c-24.886-18.353-48.076-38.901-69.291-61.397l62.123-58.539c17.671 18.789 37.007 35.94 57.771 51.243v-0.213zM153.594 679.68l-71.595 46.421c-16.804-25.922-31.227-53.312-43.093-81.835l78.805-32.725c9.875 23.752 21.885 46.558 35.883 68.139v0zM674.428 53.333l32.469-78.891c28.617 11.802 56.102 26.167 82.133 42.923l-46.208 71.765c-21.683-13.952-44.574-25.933-68.395-35.797v0zM344.143-35.84c29.244-10.121 59.349-17.562 89.943-22.229l12.8 84.352c-25.455 3.9-50.504 10.099-74.839 18.517l-27.904-80.64zM895.228 260.267l76.8-37.675c13.662 27.793 24.772 56.768 33.195 86.571l-82.176 23.125c-7.049-24.811-16.358-48.917-27.819-72.021zM803.708 136.533l58.155-62.165c22.532 21.133 43.136 44.237 61.568 69.035l-68.267 50.901c-15.39-20.757-32.61-40.094-51.456-57.771v0zM524.113 21.333l2.304-85.333c30.925 0.841 61.713 4.467 91.989 10.837l-17.664 83.499c-25.225-5.291-50.871-8.303-76.629-9.003v0zM511.996 960c-15.659 0-31.189-0.725-46.507-2.091l7.723-84.992c12.77 1.166 25.698 1.749 38.784 1.749 113.118-0.124 221.572-45.117 301.559-125.105s124.979-188.441 125.107-301.562c0-13.099-0.64-26.069-1.749-38.869l84.992-7.552c1.365 15.275 2.091 30.763 2.091 46.421-0.149 135.746-54.14 265.89-150.127 361.876s-226.129 149.977-361.873 150.124v0zM585.51 405.333h139.819v85.333h-139.819c-7.437 12.783-18.069 23.411-30.848 30.848v182.485h-85.333v-182.485c-11.319-6.515-20.983-15.548-28.245-26.402-7.266-10.85-11.934-23.228-13.645-36.173-1.714-12.945-0.422-26.112 3.772-38.477 4.194-12.369 11.179-23.603 20.412-32.836s20.467-16.218 32.832-20.412c12.369-4.194 25.536-5.483 38.481-3.772s25.323 6.379 36.173 13.645c10.85 7.266 19.883 16.93 26.402 28.245z" />
<glyph unicode="&#xe916;" glyph-name="time-past" d="M512 960c-126.043-0.381-247.54-47.127-341.333-131.328v131.328h-85.333v-219.435c0.023-21.007 8.378-41.146 23.232-56s34.994-23.209 56-23.232h219.435v85.333h-175.829c69.344 70.248 160.931 114.236 259.11 124.449 98.176 10.213 196.855-13.983 279.177-68.454 82.317-54.471 143.168-135.836 172.151-230.193s24.299-195.854-13.244-287.139c-37.547-91.29-105.63-166.711-192.61-213.372-86.985-46.665-187.473-61.675-284.292-42.466-96.823 19.209-183.971 71.441-246.554 147.772s-96.72 172.028-96.575 270.737h-85.333c0-101.265 30.028-200.256 86.287-284.45 56.259-84.198 136.223-149.824 229.779-188.578 93.556-38.75 196.501-48.887 295.821-29.133s190.549 68.518 262.153 140.122c71.603 71.603 120.367 162.833 140.122 262.153s9.617 202.265-29.133 295.821c-38.754 93.556-104.38 173.519-188.578 229.779-84.194 56.259-183.185 86.287-284.45 86.287v0zM469.333 661.354v-230.997l140.501-140.501 60.331 60.331-115.499 115.499v195.669h-85.333z" />
<glyph unicode="&#xe917;" glyph-name="time-oclock" d="M512 960c-101.264 0-200.254-30.028-284.452-86.287s-149.822-136.223-188.574-229.779c-38.752-93.556-48.891-196.501-29.136-295.821s68.519-190.549 140.123-262.153c71.604-71.603 162.834-120.367 262.153-140.122s202.265-9.617 295.82 29.133c93.555 38.754 173.521 104.38 229.777 188.578 56.26 84.194 86.289 183.185 86.289 284.45-0.145 135.746-54.135 265.89-150.123 361.876s-226.133 149.977-361.877 150.124v0zM512 21.333c-84.386 0-166.878 25.024-237.043 71.906s-124.852 113.519-157.145 191.484c-32.294 77.961-40.743 163.75-24.28 246.515s57.099 158.79 116.77 218.461c59.67 59.67 135.695 100.306 218.46 116.769s168.555 8.014 246.515-24.28c77.965-32.293 144.602-86.98 191.484-157.145s71.906-152.657 71.906-237.043c-0.124-113.122-45.116-221.572-125.103-301.564-79.991-79.987-188.442-124.979-301.564-125.103v0zM597.333 448c0.068-14.997-3.819-29.743-11.264-42.761-7.445-13.013-18.189-23.838-31.151-31.381-12.962-7.539-27.682-11.533-42.675-11.575-14.997-0.043-29.739 3.866-42.739 11.332-13.005 7.471-23.812 18.231-31.33 31.206-7.522 12.975-11.49 27.699-11.507 42.697-0.016 14.993 3.917 29.73 11.409 42.722 7.492 12.988 18.27 23.778 31.258 31.275v182.485h85.333v-182.485c12.932-7.437 23.684-18.146 31.172-31.049s11.452-27.546 11.494-42.466v0z" />
<glyph unicode="&#xe918;" glyph-name="time-half-past" d="M99.54 338.176l-82.475-21.973c-7.629 28.74-12.726 58.095-15.232 87.723l84.992 7.211c2.135-24.64 6.389-49.050 12.715-72.96v0zM148.863 87.125c20.936-21.103 43.679-40.333 67.968-57.472l49.152 69.717c-20.213 14.302-39.156 30.319-56.619 47.872l-60.501-60.117zM124.799 268.459l-77.355-35.968c12.503-26.94 27.336-52.74 44.331-77.099l70.016 48.768c-14.138 20.339-26.514 41.852-36.992 64.299v0zM99.711 558.592l-82.432 21.675c-7.651-28.712-12.79-58.035-15.36-87.637l84.992-7.467c2.154 24.755 6.437 49.28 12.8 73.301v0.128zM162.132 692.309l-69.888 48.896c-17.040-24.354-31.916-50.152-44.459-77.099l77.355-36.011c10.466 22.426 22.842 43.91 36.992 64.213v0zM294.399 911.488l36.352-77.184c22.409 10.538 45.693 19.104 69.589 25.6l-22.528 82.304c-28.645-7.794-56.556-18.073-83.413-30.72v0zM149.332 809.344l60.459-60.117c17.482 17.524 36.439 33.512 56.661 47.787l-49.152 69.717c-24.294-17.1-47.038-36.303-67.968-57.387v0zM293.588-15.232c26.916-12.706 54.9-23.014 83.627-30.805l22.315 82.347c-23.86 6.481-47.104 15.044-69.461 25.6l-36.48-77.141zM512 960c-15.659 0-31.147-0.725-46.464-2.091l7.68-84.992c12.8 1.152 25.6 1.749 38.784 1.749 113.156 0 221.683-44.952 301.696-124.968 80.017-80.016 124.971-188.54 124.971-301.699 0-113.161-44.954-221.683-124.971-301.7-80.013-80.013-188.54-124.966-301.696-124.966-13.099 0-25.984 0.597-38.784 1.749l-7.68-84.992c15.317-1.365 30.805-2.091 46.464-2.091 135.791 0 266.018 53.943 362.039 149.961 96.017 96.021 149.961 226.249 149.961 362.039s-53.943 266.020-149.961 362.039c-96.021 96.019-226.249 149.961-362.039 149.961v0zM469.333 234.667h85.333v139.819c12.962 7.403 23.74 18.099 31.236 31.010s11.443 27.575 11.443 42.505c0 14.929-3.947 29.594-11.443 42.505s-18.274 23.607-31.236 31.010v182.485h-85.333v-182.485c-12.966-7.403-23.744-18.099-31.241-31.010s-11.443-27.575-11.443-42.505c0-14.929 3.947-29.594 11.443-42.505s18.274-23.607 31.241-31.010v-139.819z" />
<glyph unicode="&#xe919;" glyph-name="time-forward" d="M512 960c126.042-0.381 247.539-47.127 341.333-131.328v131.328h85.333v-219.435c-0.021-21.007-8.375-41.146-23.232-56-14.852-14.854-34.995-23.209-56-23.232h-219.435v85.333h175.829c-69.346 70.248-160.93 114.236-259.11 124.449-98.176 10.213-196.856-13.983-279.175-68.454s-143.168-135.836-172.151-230.193c-28.983-94.358-24.302-195.854 13.244-287.139 37.546-91.29 105.626-166.711 192.609-213.372 86.983-46.665 187.472-61.675 284.291-42.466 96.823 19.209 183.97 71.441 246.554 147.772s96.721 172.028 96.576 270.737h85.333c0-101.265-30.029-200.256-86.289-284.45-56.256-84.198-136.222-149.824-229.777-188.578-93.555-38.75-196.501-48.887-295.82-29.133s-190.548 68.518-262.153 140.122c-71.604 71.603-120.368 162.833-140.123 262.153s-9.616 202.265 29.136 295.821c38.752 93.556 104.376 173.519 188.574 229.779s183.188 86.287 284.452 86.287v0zM469.333 661.354v-230.997l140.501-140.501 60.331 60.331-115.499 115.499v195.669h-85.333z" />
<glyph unicode="&#xe91a;" glyph-name="time-forward-ten" d="M938.701 874.667v-143.445c-48.964 73.737-116.203 133.521-195.162 173.519s-166.938 58.844-255.356 54.698c-88.413-4.146-174.242-31.141-249.112-78.353s-136.221-113.025-178.068-191.020c-41.847-77.994-62.76-165.505-60.698-253.991 2.062-88.491 27.028-174.929 72.462-250.893 45.434-75.959 109.785-138.846 186.772-182.519 76.987-43.669 163.981-66.641 252.495-66.662v85.333c-74.889 0.034-148.448 19.78-213.286 57.25s-118.673 91.345-156.093 156.215c-37.42 64.866-57.109 138.441-57.087 213.329 0.022 74.884 19.754 148.448 57.213 213.293s91.325 118.689 156.186 156.121c64.861 37.432 138.43 57.134 213.319 57.125s148.45-19.728 213.303-57.175c64.853-37.447 118.707-91.304 156.151-156.158h-156.373v-85.333h213.333c22.63 0 44.335 8.99 60.339 24.993 16 16.003 24.994 37.708 24.994 60.34v213.333h-85.333zM554.667 405.333h-256v85.333h170.667v213.333h85.333v-298.667zM896-64c-33.946 0-66.505 13.487-90.509 37.491s-37.491 56.563-37.491 90.509v128c0 33.946 13.487 66.505 37.491 90.509s56.563 37.491 90.509 37.491c33.946 0 66.505-13.487 90.509-37.491s37.491-56.563 37.491-90.509v-128c0-33.946-13.487-66.505-37.491-90.509s-56.563-37.491-90.509-37.491zM896 234.667c-11.315 0-22.17-4.497-30.17-12.497s-12.497-18.854-12.497-30.17v-128c0-11.315 4.497-22.17 12.497-30.17s18.854-12.497 30.17-12.497c11.315 0 22.17 4.497 30.17 12.497s12.497 18.854 12.497 30.17v128c0 11.315-4.497 22.17-12.497 30.17s-18.854 12.497-30.17 12.497zM725.333-64.030h-85.333v238.332l-55.168-55.168-60.331 60.331 128 128c5.965 5.965 13.568 10.031 21.841 11.674 8.277 1.647 16.853 0.802 24.649-2.428s14.46-8.695 19.149-15.71c4.685-7.014 7.189-15.262 7.194-23.701v-341.329z" />
<glyph unicode="&#xe91b;" glyph-name="time-forward-sixty" d="M725.359 64.004c0-33.946-13.487-66.505-37.491-90.509s-56.563-37.491-90.509-37.491c-33.95 0-66.505 13.487-90.509 37.491-24.009 24.004-37.491 56.563-37.491 90.509v128c0 33.95 13.483 66.509 37.491 90.513 24.004 24.004 56.559 37.487 90.509 37.487h85.333v-85.333h-85.333c-11.315 0-22.17-4.493-30.17-12.493-8.004-8.004-12.497-18.854-12.497-30.174v-7.296c19.307 6.827 39.97 8.922 60.258 6.11 20.284-2.816 39.599-10.458 56.32-22.285 16.717-11.823 30.357-27.49 39.77-45.679s14.323-38.37 14.319-58.85zM640.026 64.004c0 8.439-2.505 16.691-7.194 23.706-4.685 7.019-11.349 12.484-19.145 15.714-7.799 3.23-16.375 4.075-24.653 2.428s-15.881-5.709-21.845-11.674c-5.969-5.969-10.031-13.572-11.678-21.85-1.647-8.273-0.802-16.853 2.428-24.649 3.23-7.799 8.7-14.46 15.714-19.149 7.019-4.689 15.266-7.194 23.706-7.194 11.315 0 22.165 4.497 30.17 12.497 8 8.004 12.497 18.854 12.497 30.17zM1024.026 192.004v-128c0-33.946-13.487-66.505-37.491-90.509s-56.563-37.491-90.509-37.491c-33.95 0-66.505 13.487-90.509 37.491-24.009 24.004-37.491 56.563-37.491 90.509v128c0 33.95 13.483 66.509 37.491 90.513 24.004 24.004 56.559 37.487 90.509 37.487 33.946 0 66.505-13.483 90.509-37.487s37.491-56.563 37.491-90.513zM938.692 192.004c0 11.319-4.497 22.17-12.497 30.174-8.004 8-18.854 12.493-30.17 12.493s-22.17-4.493-30.17-12.493c-8.004-8.004-12.497-18.854-12.497-30.174v-128c0-11.315 4.493-22.165 12.497-30.17 8-8 18.854-12.497 30.17-12.497s22.165 4.497 30.17 12.497c8 8.004 12.497 18.854 12.497 30.17v128zM554.692 704.006h-85.333v-213.335h-170.668v-85.333h256.001v298.669zM938.692 874.673v-143.957c-45.811 69.282-107.793 126.373-180.599 166.346s-154.249 61.625-237.291 63.088c-83.046 1.463-165.198-17.307-239.366-54.691s-138.124-92.256-186.346-159.881c-48.221-67.625-79.26-145.971-90.435-228.274-11.176-82.3-2.152-166.084 26.29-244.122s75.451-147.977 136.965-203.785c61.515-55.808 135.688-95.804 216.115-116.54v88.149c-66.334 20.634-126.626 57.152-175.639 106.381-49.013 49.233-85.264 109.683-105.604 176.111-20.34 66.423-24.153 136.806-11.109 205.039 13.045 68.235 42.553 132.25 85.96 186.487s99.402 97.055 163.118 124.733c63.716 27.679 133.228 39.381 202.493 34.091s136.196-27.415 194.97-64.449c58.773-37.035 107.614-87.86 142.281-148.060h-155.136v-85.333h213.333c22.63 0 44.335 8.99 60.339 24.993s24.994 37.708 24.994 60.34v213.333h-85.333z" />
<glyph unicode="&#xe91c;" glyph-name="time-fast" d="M426.667-64h-426.667v85.333h426.667v-85.333zM341.333 192h-341.333v-85.333h341.333v85.333zM256 362.667h-256v-85.333h256v85.333zM512 960c-135.746-0.147-265.89-54.137-361.876-150.124s-149.977-226.131-150.124-361.876h85.333c0 84.386 25.024 166.878 71.906 237.043s113.519 124.852 191.482 157.146c77.962 32.293 163.752 40.742 246.516 24.279s158.788-57.099 218.462-116.769c59.669-59.671 100.305-135.695 116.77-218.461 16.461-82.765 8.013-168.555-24.282-246.515-32.294-77.965-86.98-144.602-157.146-191.484s-152.657-71.906-237.043-71.906v-85.333c135.791 0 266.018 53.943 362.039 149.961 96.017 96.021 149.961 226.249 149.961 362.039s-53.943 266.020-149.961 362.039c-96.021 96.019-226.249 149.961-362.039 149.961v0zM469.333 661.333v-230.997l140.501-140.501 60.331 60.331-115.499 115.499v195.669h-85.333z" />
<glyph unicode="&#xe91d;" glyph-name="time-delete" d="M1022.165 257.835l-129.835-129.835 129.835-129.835-60.331-60.331-129.835 129.835-129.835-129.835-60.331 60.331 129.835 129.835-129.835 129.835 60.331 60.331 129.835-129.835 129.835 129.835 60.331-60.331zM85.334 448c-0.050 57.86 11.669 115.126 34.444 168.315s56.131 101.19 98.039 141.085c41.908 39.894 91.492 70.848 145.737 90.979s112.021 29.018 169.809 26.121c57.788-2.897 114.381-17.517 166.34-42.972s98.202-61.211 135.91-105.097c37.709-43.885 66.095-94.982 83.439-150.182 17.34-55.2 23.275-113.35 17.438-170.916h85.333c1.195 14.123 2.176 28.245 2.176 42.667 0 101.264-30.029 200.254-86.289 284.452-56.256 84.198-136.222 149.822-229.777 188.574s-196.501 48.891-295.82 29.136c-99.318-19.756-190.548-68.519-262.153-140.123s-120.368-162.834-140.123-262.153c-19.756-99.319-9.616-202.265 29.136-295.82s104.376-173.521 188.574-229.777c84.198-56.26 183.188-86.289 284.452-86.289 14.421 0 28.544 0.981 42.667 2.176v85.333c-59.337-6.016-119.279 0.482-175.945 19.081-56.668 18.598-108.803 48.879-153.037 88.887-44.233 40.004-79.58 88.849-103.756 143.369-24.176 54.524-36.643 113.51-36.595 173.154v0zM469.333 704v-195.669l-115.498-115.499 60.331-60.331 140.501 140.501v230.997h-85.333z" />
<glyph unicode="&#xe91e;" glyph-name="time-check" d="M699.712-64.043h-1.408c-10.799 0.175-21.449 2.534-31.309 6.933-9.865 4.399-18.735 10.748-26.078 18.667l-135.168 139.179 61.696 58.965 132.48-136.533 259.456 259.499 60.331-60.203-262.869-262.912c-7.479-7.531-16.384-13.491-26.193-17.545-9.809-4.049-20.326-6.106-30.938-6.050v0zM469.333 704v-195.669l-115.5-115.499 60.33-60.331 140.503 140.501v230.997h-85.333zM511.957 960c-131.345-1.101-257.244-52.64-351.659-143.957s-150.122-215.428-155.602-346.667c-5.48-131.234 39.687-259.558 126.161-358.426 86.473-98.871 207.637-160.725 338.434-172.774v85.333c-84.057 8.384-163.739 41.51-228.963 95.194-65.224 53.679-113.058 125.504-137.449 206.379-24.392 80.879-24.244 167.172 0.423 247.965s72.747 152.452 138.153 205.911c65.407 53.459 145.201 86.315 229.286 94.41 84.087 8.095 168.683-8.934 243.089-48.934 74.402-39.999 135.27-101.17 174.899-175.773 39.625-74.603 56.235-159.283 47.718-243.328h85.333c1.195 14.123 2.176 28.245 2.176 42.667-0.145 135.746-54.135 265.89-150.123 361.876s-226.129 149.977-361.877 150.124v0z" />
<glyph unicode="&#xe91f;" glyph-name="time-add" d="M853.333 192h170.667v-85.333h-170.667v-170.667h-85.333v170.667h-170.667v85.333h170.667v170.667h85.333v-170.667zM469.333 704v-195.669l-115.498-115.499 60.331-60.331 140.501 140.501v230.997h-85.333zM85.334 448c-0.050 57.86 11.669 115.126 34.444 168.315s56.131 101.19 98.039 141.085c41.908 39.894 91.492 70.848 145.737 90.979s112.021 29.018 169.809 26.121c57.788-2.897 114.381-17.517 166.34-42.972s98.202-61.211 135.91-105.097c37.709-43.885 66.095-94.982 83.439-150.182 17.34-55.2 23.275-113.35 17.438-170.916h85.333c1.195 14.123 2.176 28.245 2.176 42.667 0 101.264-30.029 200.254-86.289 284.452-56.256 84.198-136.222 149.822-229.777 188.574s-196.501 48.891-295.82 29.136c-99.318-19.756-190.548-68.519-262.153-140.123s-120.368-162.834-140.123-262.153c-19.756-99.319-9.616-202.265 29.136-295.82s104.376-173.521 188.574-229.777c84.198-56.26 183.188-86.289 284.452-86.289 14.421 0 28.544 0.981 42.667 2.176v85.333c-59.337-6.016-119.279 0.482-175.945 19.081-56.668 18.598-108.803 48.879-153.037 88.887-44.233 40.004-79.58 88.849-103.756 143.369-24.176 54.524-36.643 113.51-36.595 173.154v0z" />
<glyph unicode="&#xe920;" glyph-name="ticket" d="M768 960h-170.667v-42.667c0-22.632-8.99-44.337-24.994-60.34s-37.709-24.994-60.339-24.994c-22.63 0-44.335 8.99-60.339 24.994s-24.994 37.708-24.994 60.34v42.667h-170.667c-33.948 0-66.505-13.486-90.51-37.49s-37.49-56.562-37.49-90.51v-896h298.667v42.667c0 22.63 8.99 44.335 24.994 60.339s37.709 24.994 60.339 24.994c22.63 0 44.335-8.99 60.339-24.994s24.994-37.709 24.994-60.339v-42.667h298.667v896c0 33.948-13.487 66.505-37.491 90.51s-56.563 37.49-90.509 37.49v0zM677.291 21.333c-9.429 36.672-30.788 69.167-60.71 92.373-29.922 23.202-66.714 35.793-104.58 35.793s-74.658-12.591-104.58-35.793c-29.924-23.206-51.281-55.701-60.71-92.373h-133.376v213.333h128v85.333h-128v512c0 11.316 4.495 22.168 12.497 30.17s18.854 12.497 30.17 12.497h90.709c9.429-36.673 30.787-69.169 60.71-92.372s66.714-35.796 104.58-35.796 74.658 12.593 104.58 35.796c29.922 23.203 51.281 55.699 60.71 92.372h90.709c11.315 0 22.17-4.495 30.17-12.497s12.497-18.854 12.497-30.17v-512h-128v-85.333h128v-213.333h-133.376zM597.333 320h-170.667v-85.333h170.667v85.333z" />
<glyph unicode="&#xe921;" glyph-name="thumbtack" d="M386.9 262.502l209.068-209.067 30.165 30.165c41.698 41.843 71.787 93.82 87.313 150.818 15.522 56.994 15.94 117.052 1.22 174.259l-10.496 42.667 89.003 89.004 9.259-9.26c21.559-22.097 50.197-35.913 80.913-39.031 30.711-3.119 61.547 4.655 87.108 21.965 15.151 10.799 27.767 24.767 36.971 40.937 9.199 16.169 14.767 34.15 16.311 52.691 1.54 18.54-0.977 37.194-7.377 54.663s-16.533 33.332-29.692 46.484l-210.133 210.475c-21.559 22.097-50.202 35.913-80.913 39.033-30.716 3.12-61.547-4.656-87.108-21.966-15.151-10.796-27.767-24.766-36.971-40.935s-14.767-34.151-16.311-52.691c-1.545-18.54 0.973-37.195 7.373-54.663 6.404-17.468 16.538-33.331 29.696-46.484l12.501-12.501-89.173-89.088-42.027 10.325c-57.308 14.839-117.492 14.49-174.622-1.012s-109.236-45.622-151.182-87.393l-30.165-30.167 209.067-208.853-314.197-314.069 60.331-60.331 314.069 314.027zM452.565 567.443l89.6-21.931 183.467 183.467-73.131 72.832c-4.42 4.407-7.817 9.73-9.954 15.593s-2.961 12.123-2.415 18.34c0.542 6.217 2.445 12.238 5.572 17.639 3.123 5.401 7.394 10.051 12.514 13.623 9.101 5.512 19.827 7.715 30.37 6.238 10.539-1.477 20.245-6.543 27.486-14.345l210.091-210.091c4.416-4.407 7.812-9.73 9.95-15.593s2.965-12.123 2.419-18.34c-0.546-6.216-2.449-12.238-5.572-17.639-3.127-5.402-7.398-10.052-12.514-13.623-9.105-5.511-19.831-7.715-30.37-6.238s-20.25 6.543-27.486 14.345l-69.589 69.589-183.467-183.468 22.101-90.069c9.31-35.853 10.697-73.301 4.066-109.747-6.635-36.442-21.124-71.006-42.466-101.282l-352.343 352.299c30.365 21.414 65.036 35.942 101.594 42.575s74.124 5.208 110.076-4.173z" />
<glyph unicode="&#xe922;" glyph-name="thumbs-up" d="M640.896 661.353l14.336 87.083c3.759 22.99 1.267 46.567-7.219 68.262s-22.647 40.708-41.007 55.048c-18.355 14.34-40.235 23.479-63.339 26.458-23.1 2.979-46.579-0.31-67.977-9.523-29.568-13.27-53.324-36.812-66.859-66.261l-79.573-161.067h-201.259c-33.948 0-66.505-13.486-90.51-37.49s-37.49-56.562-37.49-90.51v-383.999c0-33.95 13.486-66.505 37.49-90.509 24.005-24.009 56.562-37.491 90.51-37.491h811.435l84.565 470.912 0.683 169.087h-383.787zM85.333 149.355v383.999c0 11.316 4.495 22.168 12.497 30.17s18.854 12.497 30.17 12.497h170.667v-469.332h-170.667c-11.316 0-22.168 4.493-30.17 12.497-8.001 8-12.497 18.854-12.497 30.17v0zM938.667 503.488l-71.253-396.8h-483.413v473.215l103.211 209.067c3.494 6.324 8.439 11.728 14.43 15.767s12.855 6.601 20.028 7.471c7.172 0.87 14.447 0.026 21.231-2.464s12.877-6.553 17.783-11.857c4.19-4.874 7.258-10.614 8.973-16.809 1.719-6.195 2.052-12.693 0.969-19.031l-30.677-186.027h398.72v-72.532z" />
<glyph unicode="&#xe923;" glyph-name="thumbs-down" d="M1024 353.536l-85.333 478.464h-810.667c-33.948 0-66.505-13.486-90.51-37.49s-37.49-56.562-37.49-90.51v-384c0-33.946 13.486-66.505 37.49-90.509s56.562-37.491 90.51-37.491h201.045l81.664-165.504c13.771-27.831 37.077-49.792 65.673-61.892 28.599-12.096 60.587-13.525 90.15-4.028s54.737 29.291 70.938 55.782c16.196 26.487 22.349 57.916 17.335 88.559l-14.336 87.083h383.531v161.536zM85.333 320v384c0 11.316 4.495 22.168 12.497 30.17s18.854 12.497 30.17 12.497h170.667v-469.333h-170.667c-11.316 0-22.168 4.497-30.17 12.497s-12.497 18.854-12.497 30.17v0zM938.667 277.333h-398.72l30.677-186.24c1.084-6.336 0.751-12.834-0.969-19.029-1.715-6.195-4.783-11.938-8.973-16.811-4.919-5.291-11.025-9.34-17.809-11.814-6.788-2.47-14.067-3.302-21.235-2.419-7.172 0.883-14.029 3.452-20.015 7.501-5.982 4.045-10.923 9.455-14.413 15.778l-103.211 209.152v473.216h483.413l71.253-396.8v-72.533z" />
<glyph unicode="&#xe924;" glyph-name="tablet" d="M85.333 960v-896c0-33.946 13.486-66.505 37.49-90.509s56.562-37.491 90.51-37.491h597.333c33.946 0 66.505 13.487 90.509 37.491s37.491 56.563 37.491 90.509v896h-853.333zM853.333 874.667v-640h-682.667v640h682.667zM810.667 21.333h-597.333c-11.316 0-22.168 4.497-30.17 12.497s-12.497 18.854-12.497 30.17v85.333h298.667v-85.333h85.333v85.333h298.667v-85.333c0-11.315-4.497-22.17-12.497-30.17s-18.854-12.497-30.17-12.497z" />
<glyph unicode="&#xe925;" glyph-name="subtitles" d="M1024 21.312h-1024v725.334c0 33.948 13.486 66.505 37.49 90.51s56.562 37.49 90.51 37.49h768c33.946 0 66.505-13.486 90.509-37.49s37.491-56.562 37.491-90.51v-725.334zM85.333 106.645h853.333v640c0 11.316-4.497 22.168-12.497 30.17s-18.854 12.497-30.17 12.497h-768c-11.316 0-22.168-4.495-30.17-12.497s-12.497-18.854-12.497-30.17v-640zM853.333 490.645h-469.333v-85.333h469.333v85.333zM298.667 490.645h-128v-85.333h128v85.333zM640 277.291h-469.333v-85.333h469.333v85.333zM853.333 277.291h-128v-85.333h128v85.333z" />
<glyph unicode="&#xe926;" glyph-name="stopwatch" d="M597.333 405.333c0.068-14.997-3.819-29.743-11.264-42.761-7.445-13.013-18.193-23.838-31.151-31.381-12.962-7.539-27.682-11.533-42.679-11.575-14.993-0.043-29.734 3.866-42.739 11.332-13.005 7.471-23.808 18.231-31.33 31.206-7.518 12.975-11.486 27.699-11.503 42.697-0.017 14.993 3.917 29.73 11.409 42.722 7.488 12.988 18.27 23.778 31.258 31.275v225.152h85.333v-225.152c12.932-7.437 23.68-18.146 31.172-31.049 7.488-12.902 11.452-27.546 11.494-42.466v0zM855.893 723.669c62.165-66.935 103.445-150.556 118.78-240.61 15.334-90.052 4.053-182.626-32.457-266.364-36.51-83.733-96.661-154.995-173.082-205.043s-165.786-76.706-257.135-76.706c-91.351 0-180.716 26.658-257.136 76.706s-136.573 121.31-173.084 205.043c-36.51 83.738-47.79 176.311-32.456 266.364 15.334 90.054 56.615 173.676 118.781 240.61l-41.728 46.379-37.547-37.547-60.331 60.331 138.667 138.667 60.331-60.331-40.704-40.704 44.715-49.664c69.214 52.069 151.569 83.82 237.825 91.691v87.509h85.333v-87.509c86.255-7.87 168.61-39.622 237.824-91.691l44.715 49.707-38.059 38.016 60.373 60.331 135.979-136.021-60.331-60.331-37.547 37.547-41.728-46.379zM896 405.333c0 75.947-22.524 150.191-64.717 213.339s-102.165 112.367-172.335 141.431c-70.165 29.064-147.375 36.668-221.862 21.852-74.49-14.817-142.913-51.389-196.616-105.093s-90.276-122.126-105.093-196.615c-14.817-74.487-7.212-151.697 21.852-221.867 29.064-70.165 78.282-130.138 141.431-172.331 63.148-42.197 137.389-64.717 213.34-64.717 101.807 0.111 199.415 40.606 271.403 112.597 71.991 71.987 112.482 169.596 112.597 271.403v0z" />
<glyph unicode="&#xe927;" glyph-name="sticker" d="M512 960c-135.791 0-266.020-53.943-362.039-149.961s-149.961-226.248-149.961-362.039c0-135.791 53.943-266.018 149.961-362.039 96.019-96.017 226.248-149.961 362.039-149.961h17.664l494.336 494.336v17.664c-0.145 135.746-54.135 265.89-150.123 361.876s-226.133 149.977-361.877 150.124v0zM85.333 448c-0.101 105.779 39.119 207.819 110.039 286.3s168.481 127.801 273.73 138.38c105.246 10.578 210.671-18.341 295.791-81.14s143.863-154.993 164.813-258.676c-132.535-2.419-258.965-56.145-352.695-149.875s-147.456-220.16-149.875-352.695c-96.358 19.622-182.991 71.898-245.265 148.002s-96.374 171.371-96.538 269.705v0zM512.939 39.936c4.77 106.436 49.19 207.232 124.523 282.573s176.128 119.77 282.56 124.553l-407.083-407.125z" />
<glyph unicode="&#xe928;" glyph-name="stats" d="M1024-64h-896c-33.948 0-66.505 13.487-90.51 37.491s-37.49 56.563-37.49 90.509v896h85.333v-896c0-11.315 4.495-22.17 12.497-30.17s18.854-12.497 30.17-12.497h896v-85.333zM682.667 490.645h-85.333v-384h85.333v384zM341.333 490.645h-85.333v-384h85.333v384zM853.333 704h-85.333v-597.333h85.333v597.333zM512 704h-85.333v-597.333h85.333v597.333z" />
<glyph unicode="&#xe929;" glyph-name="star" d="M300.455 703.898c5.749 4.364 10.333 11.192 28.25 43.333l16.368 29.363c27.706 49.706 50.377 90.376 71.755 118.293 21.756 28.412 48.649 52.312 86.677 52.312 2.603 0 5.154-0.112 7.654-0.33-2.492 0.216-5.035 0.328-7.633 0.328-38.025 0-64.917-23.901-86.674-52.312-21.379-27.917-44.049-68.588-71.756-118.293l-16.368-29.363c-17.917-32.141-22.501-38.969-28.25-43.333-5.534-4.201-12.673-6.544-47.519-14.428l-31.952-7.229c-53.66-12.14-97.867-22.14-130.063-34.828-33.42-13.17-62.665-32.582-73.924-68.788-11.143-35.833 1.38-68.799 20.734-99.544 18.806-29.871 48.842-64.994 85.533-107.9l21.657-25.323c23.598-27.597 28.528-34.347 30.845-41.801 2.362-7.595 2.14-16.375-1.425-53.163l-3.265-33.694c-5.556-57.327-10.088-104.081-8.502-139.686 1.614-36.237 9.845-71.040 39.755-93.747 14.457-10.974 30.035-16.154 46.072-17.523-16.045 1.365-31.632 6.545-46.096 17.527-29.91 22.703-38.141 57.506-39.755 93.747-1.586 35.605 2.945 82.355 8.502 139.686l3.264 33.69c3.565 36.787 3.787 45.568 1.425 53.167-2.317 7.45-7.247 14.204-30.845 41.796l-21.658 25.327c-36.691 42.901-66.728 78.025-85.533 107.9-19.354 30.741-31.877 63.709-20.734 99.542 11.259 36.206 40.504 55.617 73.924 68.788 32.195 12.688 76.403 22.689 130.063 34.828l31.951 7.229c34.846 7.884 41.985 10.227 47.519 14.429zM739.017-33.677c-11.477 0.977-23.049 3.452-34.479 6.729-33.186 9.506-74.551 28.557-124.787 51.686l-29.926 13.781c-29.402 13.534-38.054 16.866-44.267 17.404 6.217-0.533 14.852-3.853 44.292-17.408l29.926-13.777c50.231-23.134 91.601-42.18 124.783-51.691 11.426-3.273 22.989-5.743 34.458-6.724zM217.144 694.496c-52.829-11.951-97.806-22.126-130.916-35.174-34.765-13.7-68.476-35.161-81.454-76.896-12.817-41.217 2.078-78.319 22.125-110.165 19.304-30.665 49.829-66.355 85.985-108.634l22.31-26.086c11.85-13.858 18.675-22.097 22.826-27.729 3.995-5.423 4.941-7.68 5.524-9.553 0.608-1.954 1.124-4.506 0.938-11.494-0.192-7.219-1.090-18.163-2.88-36.638l-3.36-34.671c-5.478-56.525-10.080-103.996-8.454-140.51 1.664-37.359 10.234-77.129 44.803-103.373 35.344-26.829 75.888-23.002 111.406-12.826 34.126 9.779 76.207 29.154 125.658 51.925l30.882 14.221c16.431 7.565 25.946 11.738 32.098 14.033 5.931 2.214 7.71 2.283 8.87 2.283 1.156 0 2.935-0.068 8.866-2.283 6.153-2.295 15.671-6.468 32.098-14.033l30.878-14.221c49.455-22.771 91.537-42.146 125.662-51.925 35.52-10.176 76.062-14.003 111.407 12.826 34.569 26.244 43.14 66.014 44.804 103.373 1.626 36.514-2.978 83.989-8.457 140.51l-3.358 34.671c-1.792 18.475-2.688 29.419-2.88 36.638-0.188 6.989 0.329 9.54 0.939 11.494 0.58 1.873 1.527 4.13 5.521 9.553 4.151 5.632 10.978 13.871 22.827 27.729l22.31 26.086c36.156 42.278 66.679 77.969 85.986 108.634 20.045 31.846 34.94 68.948 22.123 110.165-12.975 41.735-46.686 63.195-81.451 76.896-33.114 13.048-78.089 23.223-130.914 35.174l-32.973 7.46c-17.489 3.958-27.52 6.415-33.818 8.348-6.037 1.852-7.654 2.932-8.785 3.791-1.246 0.947-2.893 2.414-6.592 8.065-3.814 5.828-9.225 15.174-18.219 31.305l-16.862 30.252c-27.298 48.976-50.33 90.297-72.277 118.954-22.447 29.311-52.651 57.33-96.836 57.33s-74.394-28.019-96.84-57.33c-21.946-28.657-44.977-69.977-72.277-118.953l-16.864-30.253c-8.992-16.131-14.402-25.477-18.217-31.305-3.7-5.652-5.345-7.119-6.592-8.065-1.131-0.858-2.747-1.939-8.783-3.791-6.298-1.932-16.329-4.39-33.821-8.348l-32.967-7.459zM254.521 34.449c6.033-0.529 15.033 0.393 29.091 4.42 27.517 7.885 64.090 24.614 117.74 49.318l32.175 14.818c24.866 11.499 46.438 21.47 69.978 21.47 1.839 0 3.665-0.060 5.483-0.179-1.809 0.119-3.631 0.179-5.461 0.179-23.535 0-45.107-9.975-69.973-21.47l-32.176-14.822c-53.651-24.704-90.223-41.434-117.74-49.318-14.077-4.032-23.082-4.949-29.116-4.416zM744.721 34.517c10.854-0.939 15.556 1.506 18.56 3.785 5.052 3.836 11.413 12.16 12.753 42.261 1.344 30.161-2.628 72.026-8.521 132.834l-3.516 36.22v0.004c-2.812 28.651-5.129 52.279 1.865 74.769 7.036 22.622 22.374 40.516 40.768 61.973l23.223 27.145c39.002 45.611 65.673 76.937 81.481 102.046 15.578 24.744 15.509 35.626 13.299 42.74-2.099 6.741-7.599 15.153-33.651 25.42-26.697 10.522-65.677 19.441-122.974 32.406l-34.249 7.743c-26.731 6.008-49.737 11.177-68.604 25.502-18.671 14.172-30.255 35.021-43.981 59.724l-17.634 31.638c-29.461 52.858-49.749 89.066-67.721 112.533-16.329 21.323-25.391 24.931-30.805 25.409 5.41-0.47 14.477-4.056 30.831-25.411 17.971-23.468 38.255-59.676 67.721-112.533l17.63-31.638c13.73-24.703 25.314-45.552 43.981-59.724 18.871-14.324 41.873-19.494 68.608-25.502l34.244-7.744c57.301-12.964 96.277-21.884 122.978-32.405 26.052-10.268 31.552-18.68 33.647-25.421 2.214-7.114 2.278-17.996-13.295-42.738-15.808-25.114-42.479-56.435-81.485-102.046l-23.219-27.149c-18.394-21.457-33.732-39.347-40.768-61.973-6.993-22.485-4.676-46.118-1.865-74.769l0.521-5.329 2.991-30.895c5.892-60.804 9.869-102.673 8.525-132.834-1.344-30.101-7.701-38.421-12.757-42.261-3.004-2.278-7.71-4.723-18.581-3.78zM241.824 603.636l35.631 8.054c25.649 5.76 51.036 11.462 72.137 27.48 20.825 15.809 33.554 38.723 46.7 62.387l18.353 32.937c29.678 53.24 49.437 88.437 66.704 110.983 8.546 11.163 14.327 16.305 17.856 18.642 2.859 1.896 4.019 1.829 4.262 1.815h0.073c0.243 0.014 1.404 0.081 4.267-1.815 3.524-2.338 9.306-7.479 17.852-18.642 17.267-22.545 37.026-57.743 66.705-110.983l18.351-32.937c13.146-23.664 25.877-46.578 46.703-62.388 21.099-16.019 46.485-21.72 72.137-27.48l35.631-8.054c57.741-13.065 95.548-21.757 121.105-31.83 12.352-4.867 18.765-8.899 22.131-11.808 2.965-2.561 3.601-4.257 3.989-5.504l0.021-0.063c0.585-1.876 2.735-8.759-11.93-32.054-15.185-24.128-41.092-54.609-80.375-100.548l-24.149-28.228c-17.66-20.595-34.513-40.247-42.338-65.408-7.765-24.977-5.222-50.871-2.526-78.353l3.661-37.679c5.931-61.227 9.766-101.995 8.474-131.029-1.25-28.075-6.933-32.090-7.659-32.597l-0.047-0.038-0.073-0.051c-0.457-0.358-1.378-1.067-4.514-1.276-3.947-0.265-11.187 0.324-24.034 4.006-26.342 7.548-61.841 23.744-115.913 48.64l-33.498 15.428c-23.821 11.021-47.633 22.033-74.005 22.033s-50.185-11.012-74.005-22.029l-6.305-2.914-27.195-12.518c-54.070-24.896-89.569-41.092-115.913-48.64-12.849-3.682-20.089-4.271-24.034-4.006-3.138 0.209-4.057 0.917-4.516 1.276l-0.070 0.051-0.050 0.038c-0.721 0.508-6.406 4.523-7.657 32.597-1.293 29.035 2.542 69.803 8.475 131.029l3.657 37.679c2.699 27.482 5.242 53.376-2.525 78.349-7.825 25.165-24.676 44.817-42.337 65.412v0l-24.147 28.228c-39.285 45.939-65.19 76.42-80.378 100.548-14.665 23.294-12.513 30.177-11.927 32.054l0.020 0.063c0.388 1.247 1.024 2.943 3.988 5.504 3.366 2.909 9.78 6.941 22.132 11.808 25.56 10.073 63.363 18.765 121.107 31.83z" />
<glyph unicode="&#xe92a;" glyph-name="star-octogram" d="M1024 448l-149.982-149.982v-212.036h-212.036l-149.982-149.982-149.98 149.982h-212.040v212.036l-149.98 149.982 149.98 149.98v212.040h212.040l149.98 149.98 149.982-149.98h212.036v-212.040l149.982-149.98zM813.7 358.438l89.6 89.6-114.598 114.562v162.14h-162.142l-24.96 25-89.6 89.56-114.6-114.6h-162.14v-162.14l-25-24.96-89.6-89.6 114.64-114.522v-162.138h162.14l24.96-25.003 89.6-89.6 114.56 114.603h162.142v162.138l24.998 24.96z" />
<glyph unicode="&#xe92b;" glyph-name="spinner" d="M17.667 447.991c0.211 119.192 42.002 234.577 118.167 326.26s181.931 153.922 299.063 175.984c117.137 22.062 238.298 2.565 342.596-55.129s185.203-149.969 228.762-260.919l-79.488-31.061c-28.237 72.337-75.678 135.598-137.212 182.964-61.53 47.366-134.822 77.041-211.977 85.827s-155.244-3.651-225.851-35.968c-70.607-32.318-131.057-83.293-174.832-147.43s-69.218-139.005-73.585-216.536c-4.367-77.53 12.507-154.778 48.803-223.428 36.297-68.646 90.639-126.084 157.171-166.127s142.73-61.171 220.384-61.103c85.901-0.286 169.865 25.519 240.777 74.010 70.908 48.486 125.423 117.367 156.322 197.521l79.488-31.061c-43.558-110.95-124.463-203.226-228.762-260.919s-225.459-77.193-342.596-55.13c-117.132 22.063-222.899 84.301-299.063 175.983-76.165 91.686-117.956 207.070-118.167 326.263v0z" />
<glyph unicode="&#xe92c;" glyph-name="smartphone" d="M170.667 960v-896c0-33.946 13.486-66.505 37.49-90.509s56.562-37.491 90.51-37.491h426.667c33.946 0 66.505 13.487 90.509 37.491s37.491 56.563 37.491 90.509v896h-682.667zM768 874.667v-597.333h-512v597.333h512zM725.333 21.333h-426.667c-11.316 0-22.168 4.497-30.17 12.497s-12.497 18.854-12.497 30.17v128h512v-128c0-11.315-4.497-22.17-12.497-30.17s-18.854-12.497-30.17-12.497zM554.667 149.355h-85.333v-85.333h85.333v85.333z" />
<glyph unicode="&#xe92d;" glyph-name="signal-alt" d="M554.667 704h-85.333c-22.63 0-44.337-8.99-60.34-24.994s-24.994-37.708-24.994-60.34v-682.667h256v682.667c0 22.632-8.99 44.337-24.994 60.34s-37.709 24.994-60.339 24.994v0zM554.667 21.333h-85.333v597.333h85.333v-597.333zM938.667 960h-85.333c-22.63 0-44.335-8.99-60.339-24.994s-24.994-37.708-24.994-60.34v-938.667h256v938.667c0 22.632-8.99 44.337-24.994 60.34s-37.709 24.994-60.339 24.994v0zM938.667 21.333h-85.333v853.333h85.333v-853.333zM170.667 448h-85.333c-22.632 0-44.337-8.99-60.34-24.994s-24.994-37.709-24.994-60.339v-426.667h256v426.667c0 22.63-8.99 44.335-24.994 60.339s-37.708 24.994-60.34 24.994z" />
<glyph unicode="&#xe92e;" glyph-name="signal-alt-2" d="M554.667 704h-85.333c-22.63 0-44.337-8.99-60.34-24.994s-24.994-37.708-24.994-60.34v-682.667h256v682.667c0 22.632-8.99 44.337-24.994 60.34s-37.709 24.994-60.339 24.994v0zM938.667 960h-85.333c-22.63 0-44.335-8.99-60.339-24.994s-24.994-37.708-24.994-60.34v-938.667h256v938.667c0 22.632-8.99 44.337-24.994 60.34s-37.709 24.994-60.339 24.994v0zM170.667 448h-85.333c-22.632 0-44.337-8.99-60.34-24.994s-24.994-37.709-24.994-60.339v-426.667h256v426.667c0 22.63-8.99 44.335-24.994 60.339s-37.708 24.994-60.34 24.994z" />
<glyph unicode="&#xe92f;" glyph-name="signal-alt-1" d="M554.667 704h-85.333c-22.63 0-44.337-8.99-60.34-24.994s-24.994-37.708-24.994-60.34v-682.667h256v682.667c0 22.632-8.99 44.337-24.994 60.34s-37.709 24.994-60.339 24.994v0zM938.667 960h-85.333c-22.63 0-44.335-8.99-60.339-24.994s-24.994-37.708-24.994-60.34v-938.667h256v938.667c0 22.632-8.99 44.337-24.994 60.34s-37.709 24.994-60.339 24.994v0zM938.667 21.333h-85.333v853.333h85.333v-853.333zM170.667 448h-85.333c-22.632 0-44.337-8.99-60.34-24.994s-24.994-37.709-24.994-60.339v-426.667h256v426.667c0 22.63-8.99 44.335-24.994 60.339s-37.708 24.994-60.34 24.994z" />
<glyph unicode="&#xe930;" glyph-name="sign-out" d="M85.333 64v768c0 11.316 4.495 22.168 12.497 30.17s18.854 12.497 30.17 12.497h213.333v85.333h-213.333c-33.948 0-66.505-13.486-90.51-37.49s-37.49-56.562-37.49-90.51v-768c0-33.946 13.486-66.505 37.49-90.509s56.562-37.491 90.51-37.491h213.333v85.333h-213.333c-11.316 0-22.168 4.497-30.17 12.497s-12.497 18.854-12.497 30.17v0zM986.581 538.518l-195.669 195.669-60.331-60.331 181.931-181.932-699.179-1.237v-85.333l701.568 1.237-184.405-184.405 60.331-60.331 195.669 195.669c24.009 23.991 37.504 56.538 37.521 90.479 0.013 33.941-13.453 66.5-37.436 90.514z" />
<glyph unicode="&#xe931;" glyph-name="sign-out-alt" d="M971.23 523.465l-211.2 211.202-60.288-60.501 183.467-183.469h-600.875v-85.333h600.875l-183.467-183.467 60.331-60.331 211.2 211.2c9.907 9.907 17.766 21.666 23.13 34.611 5.363 12.941 8.124 26.816 8.124 40.823 0 14.012-2.761 27.887-8.124 40.828-5.363 12.945-13.222 24.704-23.13 34.607l-0.043-0.171zM446.976 64c0-11.315-4.497-22.17-12.497-30.17s-18.854-12.497-30.17-12.497h-276.309c-11.316 0-22.168 4.497-30.17 12.497s-12.497 18.854-12.497 30.17v768c0 11.316 4.495 22.168 12.497 30.17s18.854 12.497 30.17 12.497h276.309c11.316 0 22.168-4.495 30.17-12.497 8-8.002 12.497-18.854 12.497-30.17v-227.541h85.333v227.541c0 33.948-13.487 66.505-37.491 90.51s-56.563 37.49-90.509 37.49h-276.309c-33.948 0-66.505-13.486-90.51-37.49s-37.49-56.562-37.49-90.51v-768c0-33.946 13.486-66.505 37.49-90.509s56.562-37.491 90.51-37.491h276.309c33.946 0 66.505 13.487 90.509 37.491s37.491 56.563 37.491 90.509v227.541h-85.333v-227.541z" />
<glyph unicode="&#xe932;" glyph-name="sign-in" d="M85.333 64v768c0 11.316 4.495 22.168 12.497 30.17s18.854 12.497 30.17 12.497h213.333v85.333h-213.333c-33.948 0-66.505-13.486-90.51-37.49s-37.49-56.562-37.49-90.51v-768c0-33.946 13.486-66.505 37.49-90.509s56.562-37.491 90.51-37.491h213.333v85.333h-213.333c-11.316 0-22.168 4.497-30.17 12.497s-12.497 18.854-12.497 30.17v0zM1023.974 405.355v85.333l-701.61-1.323 184.448 184.492-60.416 60.331-195.669-195.669c-23.997-24.005-37.477-56.556-37.477-90.497s13.48-66.492 37.477-90.496l195.669-195.669 60.331 60.331-181.888 181.888 699.136 1.28z" />
<glyph unicode="&#xe933;" glyph-name="sign-in-alt" d="M891.951 960h-759.681c-35.333-0.282-69.109-14.577-93.909-39.745s-38.596-59.151-38.358-94.484v-207.104h85.333v207.104c-0.13 6.292 0.98 12.549 3.269 18.412s5.71 11.218 10.068 15.759c4.358 4.541 9.568 8.178 15.333 10.705s11.971 3.892 18.263 4.020h759.895c12.634-0.369 24.61-5.714 33.318-14.872 8.713-9.158 13.453-21.387 13.188-34.024v-755.541c0.26-12.672-4.506-24.934-13.261-34.099-8.759-9.161-20.787-14.485-33.459-14.797h-759.681c-6.292 0.128-12.498 1.493-18.263 4.019s-10.975 6.165-15.333 10.705c-4.358 4.54-7.78 9.894-10.068 15.761-2.289 5.862-3.399 12.117-3.269 18.411v207.104h-85.333v-207.104c-0.239-35.332 13.557-69.316 38.358-94.485s58.576-39.462 93.909-39.744h759.895c35.255 0.393 68.924 14.737 93.632 39.893s38.447 59.076 38.208 94.336v755.541c0.239 35.296-13.53 69.248-38.285 94.409-24.751 25.162-58.475 39.482-93.769 39.82v0zM128 405.367h601.003l-183.467-183.467 60.331-60.506 211.157 211.2c9.907 9.907 17.766 21.666 23.13 34.611 5.363 12.941 8.124 26.816 8.124 40.828 0 14.007-2.761 27.883-8.124 40.823-5.363 12.945-13.222 24.704-23.13 34.607l-211.157 211.202-60.459-60.501 183.467-183.465h-600.875v-85.333z" />
<glyph unicode="&#xe934;" glyph-name="shuffle" d="M858.598 392.832l-60.331-60.331 97.792-97.835h-16.294c-144.384 0-236.203 65.365-317.696 149.675l-12.8-14.848c-13.995-16.213-28.416-32.896-43.435-49.664 93.867-108.689 230.485-171.017 374.101-170.667h16.124l-97.83-97.835 60.326-60.331 140.506 140.506c33.31 33.318 33.31 87.334 0 120.661l-140.463 140.668zM879.782 661.331h16.256l-97.792-97.834 60.331-60.329 140.501 140.501c33.314 33.322 33.314 87.338 0 120.662l-140.501 140.502-60.331-60.33 97.792-97.84h-16.299c-211.494 0-327.125-113.92-432.038-233.729-103.64 117.037-228.228 233.729-449.368 233.729v-85.334c190.464 0 293.248-99.67 392.918-213.334-99.67-113.664-202.454-213.333-392.918-213.333v-85.333c247.808 0 374.442 146.603 486.398 275.883 104.704 121.431 203.819 236.119 395.051 236.119z" />
<glyph unicode="&#xe935;" glyph-name="suitcase" d="M768 704c0 67.895-26.97 133.010-74.982 181.019-48.009 48.009-113.122 74.981-181.018 74.981s-133.010-26.971-181.019-74.981c-48.009-48.009-74.981-113.124-74.981-181.019h-128c-70.692 0-128-57.308-128-128v-512c0-33.946 13.486-66.505 37.49-90.509s56.562-37.491 90.51-37.491h768c33.946 0 66.505 13.487 90.509 37.491s37.491 56.563 37.491 90.509v512c0 70.692-57.306 128-128 128h-128zM512 874.667c45.265 0 88.674-17.981 120.678-49.987 32.009-32.006 49.988-75.416 49.988-120.68h-341.333c0 45.264 17.981 88.673 49.987 120.68s75.415 49.987 120.68 49.987zM938.667 64c0-11.315-4.497-22.17-12.497-30.17s-18.854-12.497-30.17-12.497h-768c-11.316 0-22.168 4.497-30.17 12.497s-12.497 18.854-12.497 30.17v512c0 23.564 19.103 42.667 42.667 42.667h128v-640h85.333v640h341.333v-640h85.333v640h128c23.565 0 42.667-19.103 42.667-42.667v-512z" />
<glyph unicode="&#xe936;" glyph-name="shopping-bag" d="M768 704c0 67.895-26.97 133.010-74.982 181.019-48.009 48.009-113.122 74.981-181.018 74.981s-133.010-26.971-181.019-74.981c-48.009-48.009-74.981-113.124-74.981-181.019h-256v-640c0-33.946 13.486-66.505 37.49-90.509s56.562-37.491 90.51-37.491h768c33.946 0 66.505 13.487 90.509 37.491s37.491 56.563 37.491 90.509v640h-256zM512 874.667c45.265 0 88.674-17.981 120.678-49.987 32.009-32.006 49.988-75.416 49.988-120.68h-341.333c0 45.264 17.981 88.673 49.987 120.68s75.415 49.987 120.68 49.987v0zM938.667 64c0-11.315-4.497-22.17-12.497-30.17s-18.854-12.497-30.17-12.497h-768c-11.316 0-22.168 4.497-30.17 12.497s-12.497 18.854-12.497 30.17v554.667h170.667v-85.333h85.333v85.333h341.333v-85.333h85.333v85.333h170.667v-554.667z" />
<glyph unicode="&#xe937;" glyph-name="shopping-bag-add" d="M768 704c0 67.895-26.97 133.010-74.982 181.019-48.009 48.009-113.122 74.981-181.018 74.981s-133.010-26.971-181.019-74.981c-48.009-48.009-74.981-113.124-74.981-181.019h-256v-640c0-33.946 13.486-66.505 37.49-90.509s56.562-37.491 90.51-37.491h469.333v85.333h-469.333c-11.316 0-22.168 4.497-30.17 12.497s-12.497 18.854-12.497 30.17v554.667h170.667v-85.333h85.333v85.333h341.333v-85.333h85.333v85.333h170.667v-256h85.333v341.333h-256zM341.333 704c0 45.264 17.981 88.673 49.987 120.68s75.415 49.987 120.68 49.987c45.265 0 88.674-17.981 120.678-49.987 32.009-32.006 49.988-75.416 49.988-120.68h-341.333zM896 277.355h-85.333v-128h-128v-85.333h128v-128h85.333v128h128v85.333h-128v128z" />
<glyph unicode="&#xe938;" glyph-name="shield" d="M851.157 847.156l-339.157 112.427-339.157-112.427c-25.45-8.364-47.61-24.547-63.324-46.243s-24.177-47.799-24.186-74.589v-278.359c0-321.024 392.533-498.304 409.344-505.685l15.104-6.699 15.701 5.205c16.853 5.632 413.184 141.227 413.184 507.179v278.359c-0.017 26.787-8.482 52.887-24.192 74.583-15.714 21.696-37.871 37.88-63.317 46.249v0zM853.333 447.966c0-267.221-270.891-393.216-339.328-420.736-68.565 34.261-343.339 186.325-343.339 420.736v278.359c0.004 8.931 2.827 17.634 8.068 24.866s12.63 12.626 21.116 15.411l312.149 103.509 312.149-103.509c8.495-2.774 15.889-8.164 21.133-15.399s8.060-15.943 8.051-24.878v-278.359z" />
<glyph unicode="&#xe939;" glyph-name="shield-plus" d="M851.157 847.156l-339.157 112.427-339.157-112.427c-25.446-8.369-47.603-24.554-63.316-46.249s-24.179-47.795-24.194-74.583v-278.359c0-321.024 392.533-498.304 409.344-505.685l15.104-6.699 15.701 5.205c16.896 5.632 413.184 141.227 413.184 507.179v278.359c-0.017 26.787-8.482 52.887-24.192 74.583-15.714 21.696-37.871 37.88-63.317 46.249v0zM853.333 447.966c0-267.221-270.891-393.216-339.328-420.736-68.565 34.261-343.339 186.325-343.339 420.736v278.359c-0.009 8.935 2.809 17.643 8.051 24.878s12.64 12.625 21.133 15.399l312.149 103.509 312.149-103.509c8.495-2.774 15.889-8.164 21.133-15.399s8.060-15.943 8.051-24.878v-278.359zM554.667 618.625h-85.333v-128.001h-128v-85.333h128v-128h85.333v128h128v85.333h-128v128.001z" />
<glyph unicode="&#xe93a;" glyph-name="shield-interrogation" d="M679.979 606.603c6.272-35.215 1.382-71.51-13.986-103.81-15.369-32.299-40.448-58.987-71.731-76.326-11.657-8.815-21.244-20.075-28.087-32.99-6.839-12.911-10.769-27.17-11.507-41.762v-31.701h-85.333v31.701c0.802 29.811 8.841 58.982 23.424 84.996 14.583 26.018 35.273 48.094 60.288 64.337 15.804 8.649 28.463 22.080 36.164 38.367 7.706 16.287 10.057 34.594 6.716 52.298-3.285 16.884-11.541 32.401-23.701 44.564-12.164 12.163-27.682 20.416-44.565 23.703-12.326 2.301-25.011 1.857-37.146-1.3s-23.428-8.951-33.067-16.968c-9.643-8.017-17.399-18.060-22.72-29.416s-8.072-23.744-8.060-36.284h-85.333c-0.024 24.925 5.423 49.551 15.959 72.14s25.901 42.59 45.012 58.59c22.886 19.222 50.415 32.096 79.842 37.337 29.423 5.24 59.708 2.662 87.821-7.477s53.073-27.483 72.38-50.297c19.307-22.813 32.282-50.297 37.632-79.701zM938.667 726.752v-278.355c0-317.312-300.672-462.891-392.832-499.925l-35.627-14.336-34.133 17.067c-91.861 45.952-390.741 217.173-390.741 497.195v278.355c-0.008 26.862 8.459 53.042 24.193 74.813s37.936 38.024 63.444 46.445l339.029 112.427 339.029-112.427c25.506-8.421 47.71-24.674 63.445-46.445s24.201-47.951 24.192-74.813v0zM853.333 726.752c-0.043 8.922-2.88 17.606-8.115 24.831s-12.604 12.627-21.069 15.446l-312.149 103.381-312.149-103.381c-8.465-2.819-15.833-8.221-21.068-15.446s-8.073-15.909-8.116-24.831v-278.355c0-231.083 262.784-380.459 343.339-420.779 79.616 32.128 339.328 156.971 339.328 420.779v278.355zM469.333 149.346h85.333v85.333h-85.333v-85.333z" />
<glyph unicode="&#xe93b;" glyph-name="shield-exclamation" d="M554.667 320.013h-85.333v426.665h85.333v-426.665zM545.835-51.529c92.16 37.035 392.832 182.613 392.832 499.925v278.355c0.009 26.862-8.457 53.042-24.192 74.813s-37.939 38.024-63.445 46.445l-339.029 112.427-339.029-112.427c-25.508-8.421-47.709-24.674-63.444-46.445s-24.201-47.951-24.193-74.813v-278.355c0-280.021 298.88-451.243 390.528-497.109l34.133-17.067 35.84 14.251zM824.149 767.029c8.465-2.819 15.834-8.221 21.069-15.446s8.073-15.909 8.115-24.831v-278.355c0-263.808-259.712-388.779-339.328-420.779-80.555 40.32-343.339 189.696-343.339 420.779v278.355c0.043 8.922 2.881 17.606 8.116 24.831s12.603 12.627 21.068 15.446l312.149 103.381 312.149-103.381zM554.667 234.679h-85.333v-85.333h85.333v85.333z" />
<glyph unicode="&#xe93c;" glyph-name="shield-check" d="M509.781-64.418l-15.104 6.699c-16.811 7.381-409.344 184.661-409.344 505.685v278.359c0.015 26.787 8.481 52.887 24.194 74.583s37.869 37.88 63.316 46.249l339.157 112.427 339.157-112.427c25.446-8.369 47.603-24.554 63.317-46.249 15.71-21.695 24.175-47.795 24.192-74.583v-278.359c0-365.952-396.288-501.547-413.184-507.179l-15.701-5.205zM512 870.111l-312.149-103.509c-8.493-2.774-15.89-8.164-21.133-15.399s-8.061-15.943-8.051-24.878v-278.359c0-234.411 274.773-386.475 343.339-420.736 68.437 27.52 339.328 153.515 339.328 420.736v278.359c0.009 8.935-2.807 17.643-8.051 24.878s-12.638 12.625-21.133 15.399l-312.149 103.509zM474.099 339.524h-1.408c-10.799 0.166-21.453 2.522-31.317 6.921-9.86 4.403-18.73 10.756-26.068 18.679l-98.389 102.404 61.483 58.965 95.743-99.84 221.056 221.054 60.331-60.331-224.469-224.472c-7.475-7.467-16.358-13.38-26.138-17.395-9.775-4.011-20.254-6.046-30.822-5.986z" />
<glyph unicode="&#xe93d;" glyph-name="share" d="M824.841 334.178c-32.26-0.030-64.030-7.902-92.565-22.95-28.535-15.044-52.983-36.804-71.232-63.407l-277.717 125.397c19.725 47.629 19.802 101.133 0.213 148.821l277.333 126.036c27.046-39.115 67.213-67.241 113.22-79.276s94.801-7.183 137.536 13.676c42.735 20.86 76.578 56.346 95.39 100.021 18.816 43.675 21.35 92.646 7.151 138.031-14.204 45.385-44.198 84.176-84.553 109.338-40.35 25.162-88.384 35.029-135.39 27.809-47.002-7.219-89.86-31.046-120.802-67.159-30.938-36.112-47.91-82.118-47.838-129.673 0.179-11.255 1.323-22.475 3.413-33.536l-294.827-133.973c-28.316 26.529-63.765 44.21-101.992 50.869s-77.565 2.007-113.184-13.384c-35.619-15.392-65.966-40.852-87.314-73.255-21.347-32.401-32.765-70.336-32.85-109.137s11.166-76.783 32.37-109.278c21.205-32.495 51.44-58.091 86.991-73.638s74.869-20.373 113.125-13.884c38.255 6.494 73.781 24.017 102.214 50.423l295.595-133.461c-2.052-11.055-3.179-22.255-3.371-33.493-0.009-39.39 11.665-77.892 33.54-110.647 21.879-32.751 52.975-58.278 89.365-73.357 36.386-15.078 76.425-19.025 115.055-11.341 38.63 7.68 74.116 26.645 101.969 54.498 27.849 27.849 46.814 63.334 54.498 101.965 7.68 38.63 3.733 78.673-11.341 115.059-15.078 36.386-40.606 67.486-73.361 89.361-32.751 21.879-71.258 33.553-110.643 33.545v0zM824.841 874.635c22.507 0.009 44.514-6.658 63.232-19.156s33.31-30.267 41.929-51.060c8.619-20.792 10.88-43.673 6.494-65.749s-15.219-42.356-31.134-58.275c-15.91-15.918-36.19-26.76-58.261-31.154-22.076-4.394-44.958-2.143-65.754 6.468s-38.571 23.197-51.076 41.91c-12.506 18.714-19.179 40.716-19.179 63.224 0.021 30.165 12.011 59.089 33.34 80.423 21.325 21.334 50.244 33.335 80.41 33.369v0zM199.091 334.178c-22.508-0.009-44.512 6.656-63.231 19.153-18.719 12.501-33.31 30.268-41.929 51.063-8.619 20.791-10.879 43.669-6.493 65.749 4.386 22.076 15.22 42.355 31.133 58.274 15.913 15.917 36.188 26.759 58.263 31.153s44.957 2.143 65.752-6.468c20.795-8.611 38.569-23.196 51.075-41.909s19.18-40.717 19.18-63.223c-0.034-30.165-12.028-59.081-33.351-80.414-21.324-21.329-50.236-33.335-80.398-33.378zM824.841 21.303c-22.507 0-44.506 6.673-63.219 19.174-18.714 12.506-33.297 30.276-41.911 51.068-8.61 20.796-10.867 43.674-6.477 65.749 4.395 22.071 15.232 42.347 31.142 58.261 15.915 15.915 36.19 26.752 58.266 31.142 22.071 4.39 44.954 2.138 65.745-6.477 20.791-8.61 38.566-23.194 51.068-41.907 12.506-18.714 19.179-40.717 19.179-63.219-0.021-30.174-12.019-59.106-33.353-80.439-21.338-21.338-50.266-33.331-80.439-33.353v0z" />
<glyph unicode="&#xe93e;" glyph-name="settings" d="M640.017-64h-255.999v149.888c-44.49 15.74-85.698 39.548-121.557 70.229l-129.877-75.051-128 221.867 129.835 74.88c-8.529 46.404-8.529 93.969 0 140.373l-129.835 74.88 128 221.867 129.877-75.051c35.859 30.68 77.067 54.488 121.557 70.229v149.888h255.999v-149.888c44.493-15.741 85.7-39.549 121.557-70.229l129.877 75.051 128-221.867-129.835-74.88c8.529-46.404 8.529-93.969 0-140.373l129.835-74.88-128-221.867-129.877 75.008c-35.861-30.665-77.069-54.46-121.557-70.187v-149.888zM469.35 21.333h85.333v129.152l32.043 8.277c52.565 13.619 100.412 41.34 138.368 80.171l23.168 23.595 111.915-64.64 42.667 73.899-111.787 64.555 8.789 31.829c14.451 52.356 14.451 107.644 0 160l-8.789 31.829 111.787 64.555-42.667 73.899-111.915-64.811-23.168 23.424c-37.978 38.769-85.82 66.431-138.368 80l-32.043 8.448v129.152h-85.333v-129.152l-32.043-8.277c-52.565-13.617-100.41-41.339-138.367-80.171l-23.168-23.595-111.915 64.811-42.667-73.899 111.787-64.555-8.789-31.829c-14.449-52.356-14.449-107.644 0-160l8.789-31.829-111.787-64.555 42.667-73.899 111.915 64.64 23.168-23.595c37.977-38.771 85.821-66.432 138.367-80l32.043-8.277v-129.152zM512.017 277.333c-33.754 0-66.752 10.010-94.816 28.762-28.066 18.752-49.941 45.41-62.858 76.595s-16.297 65.498-9.712 98.607c6.585 33.105 22.839 63.514 46.708 87.383s54.277 40.122 87.386 46.708c33.105 6.585 67.422 3.206 98.607-9.712s57.839-34.792 76.591-62.858c18.752-28.065 28.762-61.064 28.762-94.817 0-45.265-17.98-88.674-49.988-120.678-32.004-32.009-75.413-49.988-120.678-49.988zM512.017 533.333c-16.875 0-33.374-5.005-47.407-14.383-14.033-9.374-24.973-22.703-31.428-38.293-6.46-15.595-8.15-32.751-4.855-49.306 3.29-16.55 11.418-31.757 23.351-43.691s27.14-20.062 43.691-23.356c16.555-3.29 33.711-1.6 49.306 4.855 15.59 6.46 28.919 17.399 38.298 31.433 9.374 14.033 14.379 30.528 14.379 47.407 0 22.63-8.99 44.335-24.994 60.339-16 16.004-37.705 24.994-60.339 24.994z" />
<glyph unicode="&#xe93f;" glyph-name="settings-sliders" d="M466.389 842.656c-9.156 33.695-29.15 63.441-56.889 84.648s-61.687 32.697-96.605 32.697c-34.918 0-68.865-11.49-96.605-32.697s-47.731-50.953-56.889-84.648h-159.403v-85.333h159.403c9.158-33.695 29.149-63.441 56.889-84.648s61.687-32.697 96.605-32.697c34.918 0 68.865 11.49 96.605 32.697s47.732 50.953 56.889 84.648h557.611v85.333h-557.611zM312.875 725.322c-14.768 0-29.204 4.379-41.483 12.584s-21.849 19.866-27.5 33.51c-5.651 13.644-7.13 28.656-4.249 43.14s9.992 27.788 20.434 38.231c10.442 10.442 23.747 17.553 38.231 20.435s29.497 1.402 43.141-4.249c13.644-5.651 25.305-15.222 33.509-27.5s12.584-26.715 12.584-41.483c-0.034-19.792-7.911-38.764-21.907-52.76s-32.967-21.873-52.76-21.907v0zM711.125 608c-34.88-0.125-68.766-11.661-96.478-32.847-27.708-21.186-47.727-50.857-56.994-84.486h-557.653v-85.333h557.653c9.143-33.702 29.124-63.458 56.862-84.676 27.738-21.214 61.687-32.708 96.61-32.708s68.873 11.494 96.61 32.708c27.738 21.218 47.718 50.974 56.862 84.676h159.403v85.333h-159.403c-9.267 33.63-29.286 63.301-56.994 84.486-27.712 21.186-61.598 32.722-96.478 32.847v0zM711.125 373.333c-14.767 0-29.205 4.378-41.481 12.582-12.279 8.205-21.85 19.866-27.503 33.51-5.649 13.645-7.13 28.655-4.25 43.14s9.993 27.789 20.437 38.229c10.441 10.445 23.744 17.557 38.229 20.437s29.495 1.399 43.14-4.25c13.645-5.653 25.306-15.223 33.51-27.503 8.205-12.275 12.582-26.714 12.582-41.481-0.021-19.797-7.898-38.775-21.892-52.774-13.999-13.995-32.977-21.871-52.774-21.892v0zM312.875 256c-34.904-0.098-68.816-11.618-96.553-32.806s-47.773-50.876-57.047-84.527h-159.275v-85.333h159.403c9.158-33.694 29.149-63.441 56.889-84.646 27.74-21.21 61.687-32.695 96.605-32.695s68.865 11.486 96.605 32.695c27.739 21.205 47.732 50.953 56.889 84.646h557.611v85.333h-557.611c-9.271 33.634-29.295 63.313-57.013 84.501-27.72 21.184-61.612 32.717-96.502 32.832zM312.875 21.333c-14.768 0-29.204 4.378-41.483 12.582s-21.849 19.866-27.5 33.51c-5.651 13.645-7.13 28.655-4.249 43.14s9.992 27.789 20.434 38.229c10.442 10.445 23.747 17.557 38.231 20.437s29.497 1.399 43.141-4.25c13.644-5.653 25.305-15.223 33.509-27.499 8.204-12.279 12.584-26.718 12.584-41.485-0.034-19.793-7.911-38.763-21.907-52.762-13.996-13.995-32.967-21.871-52.76-21.905v0z" />
<glyph unicode="&#xe940;" glyph-name="search" d="M1023.949-3.703l-267.179 267.179c69.402 84.881 103.526 193.195 95.309 302.527-8.213 109.335-58.138 211.329-139.443 284.887s-187.776 113.051-297.385 110.31c-109.609-2.741-213.971-47.505-291.5-125.034s-122.294-181.891-125.034-291.5c-2.741-109.606 36.752-216.077 110.31-297.382 73.558-81.31 175.552-131.234 284.887-139.447s217.644 25.907 302.525 95.309l267.179-267.179 60.331 60.331zM426.616 191.966c-67.51 0-133.503 20.019-189.635 57.527-56.132 37.504-99.881 90.816-125.716 153.186s-32.594 131-19.424 197.212c13.17 66.212 45.679 127.032 93.416 174.769s108.556 80.245 174.768 93.415c66.212 13.171 134.845 6.411 197.215-19.424s115.678-69.584 153.186-125.716c37.504-56.132 57.523-122.125 57.523-189.636-0.102-90.496-36.096-177.254-100.087-241.246-63.987-63.991-150.75-99.985-241.245-100.087z" />
<glyph unicode="&#xe941;" glyph-name="search-heart" d="M1023.962-3.793l-266.658 266.658c149.107 182.362 122.146 451.067-60.211 600.173-182.362 149.106-451.066 122.148-600.172-60.214s-122.148-451.067 60.212-600.17c157.076-128.435 382.883-128.435 539.956 0l266.662-266.658 60.211 60.211zM427.793 191.497c-188.145 0-340.667 152.521-340.667 340.668 0 188.146 152.522 340.668 340.667 340.668 188.147 0 340.668-152.522 340.668-340.668-0.213-188.058-152.61-340.454-340.668-340.668zM511.898 702.498c-31.006 0.378-61.069-10.638-84.489-30.958-23.919 20.382-54.425 31.382-85.847 30.958-72.84-2.5-129.95-63.418-127.75-136.268 0-116.762 169.014-239.702 188.304-253.33l24.615-17.412 24.567 17.412c19.29 13.628 188.348 136.567 188.348 253.33 2.176 72.842-54.921 133.746-127.748 136.268zM426.731 400.964c-59.617 47.351-127.751 119.531-127.751 165.266-2.126 25.798 16.824 48.538 42.584 51.1 22.574 1.502 42.092-15.582 43.594-38.156 0.098-1.474 0.116-2.952 0.054-4.426h85.167c-2.001 21.474 13.781 40.502 35.255 42.504 2.082 0.194 4.177 0.22 6.263 0.080 25.745-2.584 44.685-25.308 42.581-51.1 0-45.737-68.305-117.912-127.748-165.268z" />
<glyph unicode="&#xe942;" glyph-name="search-alt" d="M341.333 618.667v85.333h341.333v-85.333h-341.333zM213.333 21.333c-11.316 0-22.168 4.497-30.17 12.497s-12.497 18.854-12.497 30.17v768c0 11.316 4.495 22.168 12.497 30.17s18.854 12.497 30.17 12.497h640v-405.333c31.684-13.333 60.617-32.431 85.333-56.32v546.987h-725.333c-33.948 0-66.505-13.486-90.51-37.49s-37.49-56.562-37.49-90.51v-768c0-33.946 13.486-66.505 37.49-90.509s56.562-37.491 90.51-37.491h533.333c-37.316 0.004-74.24 7.569-108.553 22.234s-65.297 36.13-91.085 63.1h-333.696zM961.835-62.165l-113.365 113.365c-30.413-19.413-65.724-29.769-101.803-29.867-37.973 0-75.093 11.26-106.671 32.358-31.573 21.099-56.183 51.085-70.716 86.165-14.532 35.085-18.334 73.69-10.923 110.933 7.407 37.244 25.694 71.454 52.544 98.308 26.854 26.85 61.065 45.137 98.308 52.544 37.244 7.411 75.849 3.61 110.933-10.923 35.081-14.532 65.067-39.142 86.165-70.716 21.099-31.578 32.358-68.698 32.358-106.671-0.098-36.079-10.453-71.39-29.867-101.803l113.365-113.365-60.331-60.331zM746.667 106.667c21.099 0 41.719 6.255 59.26 17.975s31.215 28.382 39.287 47.872c8.073 19.49 10.185 40.939 6.071 61.628-4.117 20.693-14.276 39.697-29.193 54.618-14.921 14.916-33.924 25.075-54.618 29.193-20.689 4.113-42.138 2.001-61.628-6.071s-36.151-21.747-47.872-39.287c-11.721-17.54-17.975-38.161-17.975-59.26 0-28.288 11.238-55.42 31.241-75.426 20.006-20.002 47.138-31.241 75.426-31.241z" />
<glyph unicode="&#xe943;" glyph-name="screen" d="M1024 149.333v554.667c0 33.948-13.487 66.505-37.491 90.51s-56.563 37.49-90.509 37.49h-768c-33.948 0-66.505-13.486-90.51-37.49s-37.49-56.562-37.49-90.51v-554.667h469.333v-42.667h-170.667v-85.333h426.667v85.333h-170.667v42.667h469.333zM85.333 704c0 11.316 4.495 22.168 12.497 30.17s18.854 12.497 30.17 12.497h768c11.315 0 22.17-4.495 30.17-12.497s12.497-18.854 12.497-30.17v-469.333h-853.333v469.333z" />
<glyph unicode="&#xe944;" glyph-name="rotate-right" d="M938.637 448c0.333-99.268-33.839-195.563-96.67-272.418-62.831-76.851-150.417-129.481-247.77-148.881-97.353-19.405-198.421-4.373-285.914 42.522-87.493 46.891-155.972 122.731-193.719 214.541s-42.417 193.886-13.21 288.76c29.207 94.873 90.475 176.649 173.321 231.334s182.122 78.882 280.84 68.449c98.718-10.432 190.741-54.845 260.326-125.64h-175.872v-85.333h219.435c21.005 0.023 41.148 8.378 56 23.232 14.857 14.854 23.211 34.993 23.232 56v219.435h-85.333v-131.328c-87.326 78.018-198.784 123.701-315.742 129.415-116.963 5.713-232.341-28.889-326.855-98.024s-162.435-168.615-192.414-281.813c-29.979-113.199-20.198-233.255 27.707-340.109s131.034-194.027 235.491-246.955c104.457-52.924 223.914-68.395 338.41-43.827 114.492 24.567 217.088 87.689 290.633 178.812 73.549 91.123 113.591 204.732 113.438 321.83h-85.333z" />
<glyph unicode="&#xe945;" glyph-name="rocket" d="M768 661.299c0-8.439-2.5-16.688-7.189-23.704s-11.354-12.485-19.149-15.715c-7.795-3.229-16.375-4.074-24.653-2.428s-15.881 5.71-21.845 11.677c-5.969 5.967-10.031 13.57-11.678 21.846s-0.802 16.855 2.428 24.652c3.23 7.796 8.7 14.46 15.714 19.148 7.019 4.688 15.266 7.191 23.706 7.191 11.315 0 22.17-4.495 30.17-12.497s12.497-18.854 12.497-30.17zM597.333 575.965c-8.439 0-16.687-2.502-23.706-7.191-7.014-4.688-12.484-11.352-15.714-19.148s-4.075-16.374-2.428-24.652c1.647-8.277 5.709-15.881 11.678-21.845 5.965-5.969 13.568-10.031 21.845-11.678s16.858-0.802 24.653 2.428c7.795 3.23 14.46 8.7 19.149 15.714 4.689 7.019 7.189 15.266 7.189 23.706 0 11.315-4.497 22.168-12.497 30.169s-18.854 12.497-30.17 12.497zM469.333 447.966c-8.439 0-16.687-2.505-23.706-7.189-7.014-4.689-12.484-11.354-15.714-19.149-3.23-7.799-4.073-16.375-2.428-24.653 1.647-8.277 5.709-15.881 11.678-21.845 5.965-5.969 13.568-10.031 21.845-11.678s16.858-0.802 24.653 2.428c7.795 3.23 14.46 8.7 19.149 15.714 4.689 7.019 7.189 15.266 7.189 23.706 0 11.315-4.497 22.17-12.497 30.17s-18.854 12.497-30.17 12.497zM996.352 932.317c12.715-12.599 21.542-28.587 25.434-46.061 3.887-17.473 2.671-35.696-3.503-52.499l-3.2-9.003c-64.085-177.835-125.568-346.922-247.083-497.109v-7.68c-0.188-72.828-17.233-144.627-49.805-209.766-32.567-65.139-79.778-121.852-137.929-165.7l-11.435-8.533h-184.832v153.003l-85.333 85.333-97.835-97.835-60.331 60.331 97.835 97.835-85.333 85.333h-153.003v194.56l8.533 11.349c44.285 56.992 101.328 102.796 166.54 133.727s136.773 46.127 208.927 44.364h7.68c150.187 121.472 319.147 182.955 496.896 246.997l9.216 3.285c16.802 6.174 35.025 7.39 52.497 3.501 17.476-3.888 33.463-12.716 46.063-25.432v0zM85.333 405.299h60.544c41.717 71.962 90.008 139.908 144.256 202.965-80.162-16.583-152.348-59.819-204.8-122.666v-80.299zM669.867 223.795c-62.4-53.299-129.523-100.813-200.533-141.952v-60.544h70.699c63.731 51.955 109.214 122.897 129.835 202.496v0zM935.979 871.944c-1.135 1.265-2.641 2.142-4.301 2.509s-3.392 0.206-4.958-0.461l-9.173-3.328c-206.677-74.453-385.152-138.795-538.837-292.437-59.27-63.462-111.169-133.427-154.709-208.554l209.707-209.749c75.115 43.58 145.075 95.492 208.555 154.752 153.6 153.6 218.027 332.245 292.523 539.008l3.243 9.003c0.661 1.565 0.819 3.297 0.452 4.956s-1.242 3.162-2.5 4.303v0z" />
<glyph unicode="&#xe946;" glyph-name="rewind" d="M639.949 683.343v270.848l-586.413-388.821c-16.584-11.842-30.102-27.472-39.428-45.591-9.326-18.116-14.192-38.199-14.192-58.581 0-20.378 4.865-40.461 14.192-58.577 9.326-18.121 22.844-33.749 39.428-45.594l586.413-418.56v274.261l384-274.261v1019.138l-384-274.261zM938.615 104.269l-384 274.304v-274.304l-451.458 322.219c-5.485 3.917-9.964 9.079-13.071 15.057-3.107 5.982-4.753 12.612-4.803 19.354-0.050 6.737 1.497 13.393 4.515 19.422 3.018 6.025 7.42 11.251 12.846 15.245l451.97 299.65v-277.719l384 274.306v-687.533z" />
<glyph unicode="&#xe947;" glyph-name="refresh" d="M512 874.663c56.597-0.186 112.597-11.594 164.757-33.565s99.443-54.069 139.115-94.435h-175.872v-85.333h219.435c21.009 0.023 41.148 8.378 56 23.232 14.857 14.854 23.211 34.994 23.232 56v219.435h-85.333v-131.328c-73.493 66.182-164.608 109.625-262.298 125.064s-197.758 2.21-288.080-38.082c-90.322-40.293-167.017-105.919-220.79-188.925s-82.314-179.828-82.165-278.729h85.333c0.125 113.121 45.117 221.574 125.105 301.562s188.441 124.981 301.561 125.105v0zM938.667 448c0.124-84.706-25.007-167.531-72.179-237.888s-114.244-125.056-192.653-157.111c-78.409-32.055-164.591-40.013-247.545-22.852-82.952 17.156-158.906 58.654-218.162 119.185h175.872v85.333h-219.435c-21.007-0.021-41.146-8.375-56-23.232-14.854-14.852-23.209-34.995-23.232-56v-219.435h85.333v131.328c73.495-66.18 164.608-109.623 262.298-125.065 97.69-15.437 197.76-2.21 288.081 38.084 90.321 40.29 167.019 105.916 220.791 188.924 53.773 83.004 82.313 179.827 82.163 278.729h-85.333z" />
<glyph unicode="&#xe948;" glyph-name="redo" d="M85.667-63.962h-85.333v341.333c0.079 101.764 40.52 199.347 112.453 271.334s169.482 112.506 271.249 112.664l206.634 6.57v273.664l396.245-396.501c23.996-24.003 37.478-56.553 37.478-90.494s-13.483-66.496-37.478-90.496l-396.16-396.501v273.664l-206.72-6.571c-79.139-0.149-154.99-31.671-210.921-87.659s-87.379-131.87-87.447-211.008v0zM384.333 320.038l291.925 6.571v-153.003l250.624 250.837c8 8 12.493 18.85 12.493 30.165 0 11.311-4.493 22.161-12.493 30.165l-250.837 250.835v-153.002l-292.010-6.571c-79.19-0.068-155.118-31.556-211.114-87.55-55.996-56-87.485-131.925-87.552-211.115v-100.224c35.93 44.634 81.414 80.64 133.103 105.37s108.265 37.551 165.564 37.521h0.299z" />
<glyph unicode="&#xe949;" glyph-name="redo-alt" d="M781.568 332.045l211.2 211.198c9.907 9.905 17.766 21.665 23.13 34.609s8.124 26.816 8.124 40.826c0 14.010-2.761 27.883-8.124 40.826s-13.222 24.704-23.13 34.609l-211.2 211.2-60.501-60.501 183.467-183.467h-772.267c-34.214 0.791-67.348-12.012-92.14-35.604s-39.222-56.050-40.127-90.262v-473.598c0.905-34.214 15.335-66.671 40.127-90.266 24.792-23.59 57.925-36.395 92.14-35.601h806.4v85.333h-806.4c-11.582-0.781-23.004 3.042-31.79 10.628s-14.227 18.33-15.144 29.905v473.598c0.917 11.572 6.358 22.317 15.144 29.904s20.207 11.407 31.79 10.629h772.565l-183.467-183.465 60.203-60.501z" />
<glyph unicode="&#xe94a;" glyph-name="receipt" d="M896-59.733l-156.288 107.136-113.664-77.867-113.749 77.909-113.749-77.824-113.963 77.909-156.587-107.264v891.733c0 33.948 13.486 66.505 37.49 90.51s56.562 37.49 90.51 37.49h512c33.946 0 66.505-13.486 90.509-37.49s37.491-56.562 37.491-90.51v-891.733zM284.587 150.955l113.92-77.909 113.792 77.909 113.749-77.909 113.707 77.952 70.912-48.597v729.6c0 11.316-4.497 22.168-12.497 30.17s-18.854 12.497-30.17 12.497h-512c-11.316 0-22.168-4.495-30.17-12.497s-12.497-18.854-12.497-30.17v-729.6l71.253 48.555zM725.333 618.646h-426.667v-85.334h426.667v85.334zM640 448h-341.333v-85.333h341.333v85.333z" />
<glyph unicode="&#xe94b;" glyph-name="pulse" d="M1024 149.355v640c0 33.948-13.487 66.505-37.491 90.51s-56.563 37.49-90.509 37.49h-768c-33.948 0-66.505-13.486-90.51-37.49s-37.49-56.562-37.49-90.51v-640h469.333v-85.333h-213.333v-85.333h512v85.333h-213.333v85.333h469.333zM85.333 789.354c0 11.316 4.495 22.168 12.497 30.17s18.854 12.497 30.17 12.497h768c11.315 0 22.17-4.495 30.17-12.497s12.497-18.854 12.497-30.17v-554.666h-853.333v554.666zM638.507 576.021h214.827v-85.333h-169.173l-113.451-170.155-128 256-57.216-85.845h-214.827v85.333h169.173l113.451 170.155 128-256 57.216 85.845z" />
<glyph unicode="&#xe94c;" glyph-name="print" d="M1024 576c0 33.948-13.487 66.505-37.491 90.51s-56.563 37.49-90.509 37.49h-85.333v256h-597.333v-256h-85.333c-33.948 0-66.505-13.486-90.51-37.49s-37.49-56.562-37.49-90.51v-512h213.333v-128h597.333v128h213.333v512zM298.667 874.667h426.667v-170.667h-426.667v170.667zM725.333 21.333h-426.667v256h426.667v-256zM938.667 149.333h-128v213.333h-597.333v-213.333h-128v426.667c0 11.316 4.495 22.168 12.497 30.17s18.854 12.497 30.17 12.497h768c11.315 0 22.17-4.495 30.17-12.497s12.497-18.854 12.497-30.17v-426.667zM810.667 533.354h-170.667v-85.333h170.667v85.333z" />
<glyph unicode="&#xe94d;" glyph-name="power" d="M640 856.458v-89.6c85.406-30.194 157.385-89.609 203.217-167.741 45.837-78.131 62.571-169.954 47.253-259.234-15.317-89.276-61.705-170.266-130.961-228.655-69.257-58.385-156.924-90.406-247.509-90.406-90.583 0-178.251 32.021-247.507 90.406-69.257 58.389-115.644 139.379-130.961 228.655-15.318 89.28 1.419 181.103 47.253 259.234 45.834 78.133 117.814 137.547 203.217 167.741v89.6c-108.987-30.895-203.122-100.166-265.035-195.031s-87.425-208.921-71.829-321.126c15.596-112.201 71.248-214.976 156.686-289.361s194.897-115.358 308.177-115.358c113.284 0 222.741 40.973 308.181 115.358 85.436 74.385 141.086 177.161 156.685 289.361 15.595 112.205-9.916 226.26-71.829 321.126s-156.049 164.137-265.037 195.031v0zM554.667 960h-85.333v-341.333h85.333v341.333z" />
<glyph unicode="&#xe94e;" glyph-name="portrait" d="M896 960h-768c-33.948 0-66.505-13.486-90.51-37.49s-37.49-56.562-37.49-90.51v-896h1024v896c0 33.948-13.487 66.505-37.491 90.51s-56.563 37.49-90.509 37.49v0zM298.667 21.333v213.333c0 11.315 4.495 22.17 12.497 30.17s18.854 12.497 30.17 12.497h341.333c11.315 0 22.17-4.497 30.17-12.497s12.497-18.854 12.497-30.17v-213.333h-426.667zM938.667 21.333h-128v213.333c0 33.946-13.487 66.505-37.491 90.509s-56.563 37.491-90.509 37.491h-341.333c-33.948 0-66.505-13.487-90.51-37.491s-37.49-56.563-37.49-90.509v-213.333h-128v810.667c0 11.316 4.495 22.168 12.497 30.17s18.854 12.497 30.17 12.497h768c11.315 0 22.17-4.495 30.17-12.497s12.497-18.854 12.497-30.17v-810.667zM512 789.354c-33.754 0-66.752-10.010-94.817-28.762s-49.941-45.408-62.858-76.593c-12.917-31.185-16.297-65.501-9.712-98.607s22.839-63.515 46.708-87.383c23.868-23.868 54.278-40.124 87.383-46.711 33.109-6.583 67.422-3.204 98.607 9.715 31.185 12.915 57.843 34.79 76.595 62.857s28.762 61.063 28.762 94.818c0 45.263-17.98 88.673-49.988 120.68-32.004 32.006-75.413 49.987-120.678 49.987zM512 533.354c-16.879 0-33.374 5.005-47.407 14.381s-24.973 22.704-31.433 38.296c-6.455 15.593-8.147 32.751-4.855 49.303 3.294 16.553 11.422 31.758 23.356 43.692s27.14 20.061 43.691 23.354c16.555 3.293 33.711 1.603 49.306-4.856 15.59-6.459 28.919-17.396 38.293-31.429 9.378-14.033 14.383-30.531 14.383-47.409 0-22.632-8.99-44.337-24.994-60.34s-37.709-24.994-60.339-24.994z" />
<glyph unicode="&#xe94f;" glyph-name="plus" d="M1024 490.667h-469.333v469.333h-85.333v-469.333h-469.333v-85.333h469.333v-469.333h85.333v469.333h469.333v85.333z" />
<glyph unicode="&#xe950;" glyph-name="plus-small" d="M554.667 490.667v213.333h-85.333v-213.333h-213.333v-85.333h213.333v-213.333h85.333v213.333h213.333v85.333h-213.333z" />
<glyph unicode="&#xe951;" glyph-name="playing-cards" d="M932.267 833.010l-402.603 121.856c-32.503 9.442-67.426 5.626-97.122-10.614s-51.753-43.581-61.342-76.042l-23.851-78.848h-219.349c-33.948 0-66.505-13.486-90.51-37.49s-37.49-56.562-37.49-90.51v-725.332h682.667v87.253l132.267-49.152 203.947 700.33c9.472 32.51 5.675 67.447-10.56 97.163s-43.58 51.789-76.053 61.386v0zM597.333 21.363h-512v639.999c0 11.316 4.495 22.168 12.497 30.17s18.854 12.497 30.17 12.497h426.667c11.315 0 22.17-4.495 30.17-12.497s12.497-18.854 12.497-30.17v-639.999zM936.96 698.312l-178.347-612.223-75.947 28.288v546.986c0 33.948-13.487 66.505-37.491 90.51s-56.563 37.49-90.509 37.49h-118.187l16.384 54.613c1.536 5.41 4.134 10.46 7.646 14.855 3.507 4.396 7.855 8.048 12.791 10.745 4.834 2.703 10.155 4.419 15.654 5.048s11.072 0.161 16.388-1.379l402.56-121.856c5.402-1.563 10.441-4.179 14.827-7.697 4.39-3.517 8.038-7.868 10.739-12.8s4.399-10.35 4.996-15.942c0.602-5.591 0.090-11.246-1.506-16.639v0zM512 405.363c0-99.541-170.667-213.333-170.667-213.333s-170.667 113.792-170.667 213.333c0 22.63 8.99 44.335 24.994 60.339s37.708 24.994 60.34 24.994c22.632 0 44.337-8.99 60.34-24.994s24.994-37.709 24.994-60.339c0 22.63 8.99 44.335 24.994 60.339s37.708 24.994 60.34 24.994c22.63 0 44.335-8.99 60.339-24.994s24.994-37.709 24.994-60.339v0z" />
<glyph unicode="&#xe952;" glyph-name="play" d="M843.328 556.498l-630.828 402.731v-1024.001l630.572 404.181c18.355 11.537 33.485 27.537 43.981 46.507 10.5 18.97 16.017 40.29 16.043 61.969s-5.444 43.012-15.893 62.003c-10.453 18.995-25.549 35.031-43.874 46.61v0zM797.248 411.644l-499.201-320v711.511l499.5-318.892c6.157-3.849 11.23-9.212 14.737-15.573s5.333-13.513 5.303-20.774c-0.030-7.266-1.916-14.4-5.474-20.732s-8.674-11.652-14.865-15.454v-0.085z" />
<glyph unicode="&#xe953;" glyph-name="play-alt" d="M1024-64h-1024v896c0 33.948 13.486 66.505 37.49 90.51s56.562 37.49 90.51 37.49h768c33.946 0 66.505-13.486 90.509-37.49s37.491-56.562 37.491-90.51v-896zM85.333 21.333h853.333v810.667c0 11.316-4.497 22.168-12.497 30.17s-18.854 12.497-30.17 12.497h-768c-11.316 0-22.168-4.495-30.17-12.497s-12.497-18.854-12.497-30.17v-810.667zM341.333 203.819v488.363l427.349-244.181-427.349-244.181zM426.667 545.152v-194.304l169.984 97.152-169.984 97.152z" />
</font>
</defs>
</svg>
